<?xml version="1.0" standalone="no"?>
<!DOCTYPE svg PUBLIC "-//W3C//DTD SVG 1.1//EN" "http://www.w3.org/Graphics/SVG/1.1/DTD/svg11.dtd" >
<svg xmlns="http://www.w3.org/2000/svg">
<metadata></metadata>
<defs>
<font id="latoblack" horiz-adv-x="1187" >
<font-face units-per-em="2048" ascent="1649" descent="-399" />
<missing-glyph horiz-adv-x="473" />
<glyph unicode="&#xfb01;" horiz-adv-x="1283" d="M37 935v125h149v15q0 96 33.5 181.5t103 148.5t177.5 100t258 37q46 0 95 -4.5t85 -13.5l-10 -161q-2 -26 -25.5 -34t-50.5 -8q-106 0 -176 -16.5t-110.5 -48.5t-56 -80.5t-15.5 -110.5v-5h673v-1060h-317v843h-346v-843h-318v844l-69 14q-36 8 -58 25.5t-22 51.5z" />
<glyph unicode="&#xfb02;" horiz-adv-x="1295" d="M37 935v125h149v37q0 81 27 158t82 137t141 96.5t205 36.5q100 0 189 -6.5t180 -6.5h178v-1512h-316v1299q-52 2 -100.5 5t-79.5 3q-97 0 -147.5 -54t-50.5 -156v-37h229v-217h-219v-843h-318v844l-69 14q-36 8 -58 25.5t-22 51.5z" />
<glyph unicode="&#xfb03;" horiz-adv-x="1963" d="M37 935v125h149v40q0 91 29.5 165t84 126.5t133.5 80.5t179 28q39 0 72 -4.5t69 -13.5l-7 -155q-2 -33 -27 -45.5t-51 -12.5q-42 0 -75 -8.5t-55 -29t-33 -54.5t-11 -86v-31h372v15q0 96 33.5 181.5t103 148.5t177.5 100t258 37q46 0 95 -4.5t85 -13.5l-10 -161 q-2 -26 -25.5 -34t-50.5 -8q-106 0 -176 -16.5t-110.5 -48.5t-56 -80.5t-15.5 -110.5v-5h673v-1060h-317v843h-346v-843h-318v843h-362v-843h-318v844l-69 14q-36 8 -58 25.5t-22 51.5z" />
<glyph unicode="&#xfb04;" horiz-adv-x="1975" d="M37 935v125h149v40q0 91 29.5 165t84 126.5t133.5 80.5t179 28q39 0 72 -4.5t69 -13.5l-7 -155q-2 -33 -27 -45.5t-51 -12.5q-42 0 -75 -8.5t-55 -29t-33 -54.5t-11 -86v-31h372v37q0 81 27 158t82 137t141 96.5t205 36.5q92 0 175 -6t166 -7h206v-1512h-316v1299 q-52 2 -100.5 5t-79.5 3q-97 0 -147.5 -54t-50.5 -156v-37h248v-217h-238v-843h-318v843h-362v-843h-318v844l-69 14q-36 8 -58 25.5t-22 51.5z" />
<glyph horiz-adv-x="0" />
<glyph horiz-adv-x="0" />
<glyph horiz-adv-x="682" />
<glyph unicode=" "  horiz-adv-x="473" />
<glyph unicode="&#x09;" horiz-adv-x="473" />
<glyph unicode="&#xa0;" horiz-adv-x="473" />
<glyph unicode="!" horiz-adv-x="598" d="M117 161q0 37 13.5 68.5t38 55t57 37.5t71.5 14q38 0 70.5 -14t57.5 -37.5t38.5 -55t13.5 -68.5t-13.5 -69.5t-38.5 -56t-57.5 -36.5t-70.5 -13q-39 0 -71.5 13t-57 36.5t-38 56t-13.5 69.5zM152 906v586h297v-586q0 -94 -11.5 -186.5t-29.5 -189.5h-215 q-18 96 -29.5 189t-11.5 187z" />
<glyph unicode="&#x22;" horiz-adv-x="856" d="M85 1199v293h276v-293l-28 -162q-9 -55 -33 -84t-78 -29q-46 0 -71.5 29t-36.5 84zM495 1199v293h276v-293l-28 -162q-9 -55 -33 -84t-78 -29q-46 0 -71.5 29t-36.5 84z" />
<glyph unicode="#" d="M22 528l16 99h182l42 241h-204l25 129q9 47 40.5 70t98.5 23h70l53 300q9 48 46.5 75t86.5 27h146l-72 -402h170l72 402h141q25 0 44.5 -8t33.5 -22t20 -33t2 -41l-53 -298h199l-25 -129q-9 -48 -40.5 -70.5t-98.5 -22.5h-65l-42 -241h111q48 0 68.5 -28.5t9.5 -95.5 l-17 -99h-202l-72 -404h-148q-22 0 -40.5 10t-31.5 27.5t-18 40t0 48.5l50 278h-169l-51 -293q-5 -30 -18.5 -51t-32.5 -34.5t-42 -19.5t-48 -6h-141l71 404h-90q-48 0 -68.5 28.5t-8.5 95.5zM480 627h170l42 241h-170z" />
<glyph unicode="$" d="M40 180l98 143q12 17 33.5 29t44.5 12q25 0 50.5 -13t55.5 -31t66.5 -37t82.5 -31l38 386q-74 20 -147 48t-131.5 75t-95 119.5t-36.5 182.5q0 81 33 157.5t96 138t155 101t211 45.5l11 114q2 29 25 52t59 23h117l-20 -201q111 -20 190.5 -66.5t134.5 -98.5l-78 -114 q-17 -26 -35 -37.5t-43 -11.5q-15 0 -36 8t-45.5 18.5l-52.5 22.5t-60 21l-36 -364q49 -14 98 -31t95 -39t85 -50.5t68.5 -67.5t46 -89t16.5 -116q0 -97 -33 -182.5t-96.5 -151.5t-155.5 -107.5t-211 -50.5l-12 -127q-2 -29 -25 -52t-59 -23h-117l20 211q-118 19 -224.5 68 t-180.5 117zM398 1094q0 -60 39 -98t101 -63l30 310q-47 -7 -79 -21.5t-52 -34t-29.5 -43.5t-9.5 -50zM664 246q169 28 169 185q0 59 -37.5 93.5t-99.5 58.5z" />
<glyph unicode="%" horiz-adv-x="1712" d="M70 1130q0 85 26.5 154.5t74 118.5t112.5 76t143 27t144 -27t113.5 -76t74 -118.5t26.5 -154.5q0 -82 -29.5 -149.5t-78.5 -116t-114 -75t-136 -26.5q-78 0 -143 26.5t-112.5 75t-74 116.5t-26.5 149zM129 0l1124 1445q15 17 38 32t63 15h231l-1124 -1447 q-15 -19 -38.5 -32t-55.5 -13h-238zM315 1130q0 -49 8.5 -81.5t22.5 -52t34.5 -27.5t45.5 -8t46 8t36 27.5t24 52t9 81.5q0 52 -9 86.5t-24 55t-36 29t-46 8.5t-45.5 -8.5t-34.5 -29t-22.5 -54.5t-8.5 -87zM928 350q0 85 26.5 154t74 118.5t112.5 76.5t143 27t144 -27 t113.5 -76.5t74 -118.5t26.5 -154q0 -82 -29.5 -150t-78.5 -116.5t-114 -75t-136 -26.5q-78 0 -143 26.5t-112.5 75t-74 116.5t-26.5 150zM1174 350q0 -49 8 -81.5t22.5 -52t35 -28t44.5 -8.5q25 0 46 8.5t36 28t24 52t9 81.5q0 51 -9 85.5t-24 55t-36 28.5t-46 8t-45 -8 t-34.5 -28.5t-22.5 -55t-8 -85.5z" />
<glyph unicode="&#x26;" horiz-adv-x="1502" d="M60 421q0 68 21 128t59.5 112t91 94.5t115.5 73.5q-49 75 -70.5 147t-21.5 139q0 80 29 151t85 125t137.5 85.5t186.5 31.5q99 0 175 -29t128.5 -76.5t82 -110t36.5 -128.5l-205 -41q-54 -12 -80 43q-24 53 -55 81t-82 28q-36 0 -62.5 -13.5t-44.5 -35t-27 -50t-9 -59.5 q0 -27 4.5 -51t16 -49t30.5 -51.5t47 -58.5l369 -388q28 60 45 127.5t22 137.5q3 29 19.5 45.5t44.5 16.5h201q0 -148 -40 -278.5t-113 -237.5l312 -330h-313q-24 0 -42 2.5t-34 8.5t-30.5 17.5t-30.5 28.5l-65 68q-97 -68 -212 -104.5t-245 -36.5q-89 0 -175 30.5 t-152.5 87.5t-107.5 138t-41 181zM384 446q0 -49 15 -89t42.5 -68.5t66 -44.5t85.5 -16q69 0 128 18t110 51l-344 365q-56 -47 -79.5 -101t-23.5 -115z" />
<glyph unicode="'" horiz-adv-x="446" d="M85 1199v293h276v-293l-28 -162q-9 -55 -33 -84t-78 -29q-46 0 -71.5 29t-36.5 84z" />
<glyph unicode="(" horiz-adv-x="575" d="M59 641q0 131 16 258t50 249.5t87 241t128 234.5l141 -82q13 -8 24 -18.5t16.5 -24.5t3.5 -33t-15 -44q-42 -86 -74.5 -180.5t-55.5 -194.5t-34.5 -202.5t-11.5 -203.5t11.5 -203.5t34.5 -202t55.5 -194t74.5 -180.5q13 -25 15 -44t-3.5 -33t-16 -24.5t-24.5 -18.5 l-141 -82q-75 115 -128 233.5t-87 241t-50 249.5t-16 258z" />
<glyph unicode=")" horiz-adv-x="575" d="M50 -183q2 19 16 44q41 86 73.5 180.5t55.5 194t35 202t12 203.5t-12 203.5t-35 202.5t-56 194.5t-73 180.5q-13 25 -15.5 44t3 33t16.5 24.5t24 18.5l142 82q148 -231 214 -476t66 -507q0 -263 -66 -507.5t-214 -474.5l-142 82q-13 8 -24 18.5t-16.5 24.5t-3.5 33z" />
<glyph unicode="*" horiz-adv-x="870" d="M84 1078l149 87q40 24 79 33q-19 3 -39 12t-40 20l-149 89l74 123l149 -90q41 -23 66 -49q-12 37 -13 78v180h150v-178q0 -22 -2.5 -42t-8.5 -38q13 14 29.5 25.5t34.5 23.5l150 88l73 -123l-149 -87q-20 -11 -39.5 -19.5t-40.5 -12.5q41 -8 80 -33l149 -89l-73 -122 l-150 89q-41 23 -65 50q12 -37 12 -79v-179h-150v177q0 22 3 42t9 39q-13 -14 -29.5 -26t-35.5 -24l-149 -87z" />
<glyph unicode="+" d="M87 574v228h377v405h258v-405h379v-228h-379v-407h-258v407h-377z" />
<glyph unicode="," horiz-adv-x="491" d="M69 180q0 33 12 61t35 49t54.5 33.5t70.5 12.5q46 0 79.5 -16t56 -43t33.5 -62.5t11 -74.5q0 -51 -16.5 -109t-48.5 -116t-80.5 -114.5t-110.5 -102.5l-55 49q-23 18 -23 45q0 10 7 22t18 21q12 12 28.5 30t32.5 39.5t30 47t21 54.5q-35 3 -63.5 17.5t-49 37.5t-31.5 53 t-11 66z" />
<glyph unicode="-" horiz-adv-x="765" d="M106 495v256h553v-256h-553z" />
<glyph unicode="&#xad;" horiz-adv-x="765" d="M106 495v256h553v-256h-553z" />
<glyph unicode="." horiz-adv-x="489" d="M65 161q0 37 13.5 68.5t37.5 55t57 37.5t72 14q38 0 70.5 -14t57 -37.5t38.5 -55t14 -68.5t-14 -69.5t-38.5 -56t-57 -36.5t-70.5 -13q-39 0 -72 13t-57 36.5t-37.5 56t-13.5 69.5z" />
<glyph unicode="/" horiz-adv-x="980" d="M52 -101l582 1526q20 52 62 80t98 28h135l-576 -1521q-11 -28 -29 -49t-40 -35.5t-47 -21.5t-50 -7h-135z" />
<glyph unicode="0" d="M41 746q0 196 41.5 339.5t115 237.5t174.5 139.5t220 45.5t220.5 -45.5t176 -139.5t116.5 -237.5t42 -339.5t-42 -339t-116.5 -237t-176 -140t-220.5 -46t-220 46t-174.5 140t-115 237.5t-41.5 338.5zM369 746q0 -156 19 -254t50 -154.5t71.5 -77.5t82.5 -21t83 21 t73 77.5t51.5 154.5t19.5 254q0 155 -19.5 254t-51.5 155t-73 77t-83 21t-82.5 -21t-71.5 -77t-50 -155t-19 -254z" />
<glyph unicode="1" d="M103 1103l465 390h262v-1264h246v-229h-850v229h287v753q0 29 1 58t3 59l-170 -142q-23 -17 -44.5 -20.5t-41 0t-35 13t-22.5 20.5z" />
<glyph unicode="2" d="M61 0v102q0 30 12.5 64t43.5 61l430 433q55 55 96 105.5t67.5 99t40 97.5t13.5 103q0 89 -42.5 136.5t-129.5 47.5q-71 0 -119.5 -37t-66.5 -93q-22 -56 -57 -74.5t-99 -8.5l-168 30q16 112 62.5 194.5t116 138t158.5 82.5t191 27q111 0 199.5 -32t151 -89.5t96 -137 t33.5 -174.5q0 -82 -23.5 -151.5t-63 -132.5t-92.5 -122t-112 -119l-292 -299q56 17 111.5 26.5t102.5 9.5h278q51 0 81 -28.5t30 -74.5v-184h-1049z" />
<glyph unicode="3" d="M49 383l141 57q55 22 102.5 11.5t67.5 -47.5q46 -85 98 -123t122 -38q53 0 92.5 18t65.5 46t39.5 64t13.5 72q0 48 -7 86.5t-37.5 66.5t-92.5 42.5t-173 14.5v219q93 0 150.5 14.5t89 39.5t41.5 61t10 79q0 88 -42.5 135.5t-129.5 47.5q-71 0 -119.5 -37t-66.5 -93 q-22 -56 -56.5 -74.5t-99.5 -8.5l-168 30q16 112 63 194.5t116 138t158 82.5t191 27q111 0 197 -31t145.5 -84.5t90 -123.5t30.5 -148q0 -71 -14 -124.5t-42.5 -93t-70 -66.5t-94.5 -45q248 -87 248 -338q0 -119 -43 -207t-115 -146.5t-167.5 -87.5t-198.5 -29 q-106 0 -189.5 23t-148 71.5t-113 124.5t-84.5 180z" />
<glyph unicode="4" d="M-5 564l690 928h303v-912h154v-179q0 -24 -16 -41t-46 -17h-92v-343h-276v343h-600q-30 0 -54 18.5t-30 46.5zM328 580h384v389q0 36 2.5 77t7.5 87z" />
<glyph unicode="5" d="M65 174l98 131q15 20 35.5 31t44.5 11q31 0 58 -17t59 -37t75 -36t107 -16q63 0 108 21t73.5 57t41 85t12.5 104q0 109 -61.5 165.5t-173.5 56.5q-100 0 -197 -38l-197 53l127 747h764v-131q0 -33 -10 -59.5t-32 -46.5t-58 -31t-86 -11h-356l-42 -246q42 8 80.5 11 t75.5 3q118 0 208 -36t151.5 -98t93 -145.5t31.5 -178.5q0 -120 -42.5 -218.5t-118.5 -170.5t-181 -111t-230 -39q-73 0 -139 15t-123.5 41.5t-107 60.5t-88.5 73z" />
<glyph unicode="6" d="M63 518q0 220 170 448l336 453q24 30 68.5 51.5t101.5 21.5h283l-442 -528l-39 -45q72 27 159 26q81 0 160 -26.5t141.5 -82t101 -140t38.5 -198.5q0 -104 -39 -198t-110 -164t-171.5 -111t-222.5 -41q-125 0 -224.5 39t-168.5 110t-105.5 169t-36.5 216zM369 475 q0 -55 13 -99t41 -76t70 -49t99 -17q49 0 91.5 18.5t73 51t48.5 76t18 94.5q0 57 -16.5 102.5t-47.5 76t-74.5 47t-96.5 16.5q-48 0 -88 -17t-69.5 -49t-45.5 -76t-16 -99z" />
<glyph unicode="7" d="M81 1283v209h1048v-133q0 -59 -13 -95.5t-25 -61.5l-519 -1098q-22 -43 -61 -73.5t-104 -30.5h-232l533 1068q24 43 47.5 78.5t53.5 66.5h-656q-14 0 -27 6t-23 15.5t-16 22.5t-6 26z" />
<glyph unicode="8" d="M61 427q0 60 14.5 114t45 99t78 80t113.5 58q-101 46 -151 127.5t-50 196.5q0 87 35.5 161t100 128.5t153 85.5t194.5 31q105 0 194 -31t153.5 -85.5t100 -128.5t35.5 -161q0 -115 -50 -196.5t-151 -127.5q67 -24 114 -58.5t77.5 -79.5t44.5 -99t14 -114q0 -100 -38 -182 t-108.5 -140t-168.5 -89.5t-217 -31.5t-217 31.5t-168.5 89.5t-109 140t-38.5 182zM389 433q0 -44 12 -82.5t37 -66.5t63.5 -44.5t92.5 -16.5q53 0 92 16.5t64 44.5t37 66.5t12 82.5q0 48 -10.5 88t-34 68t-63 44t-97.5 16t-97.5 -16t-63 -44t-34 -68t-10.5 -88zM420 1096 q0 -39 7 -76t26.5 -65.5t53.5 -46t87 -17.5t87 17.5t53.5 46t26.5 65.5t7 76q0 35 -9 67.5t-30 57.5t-54.5 40.5t-80.5 15.5q-48 0 -81 -15.5t-54 -40.5t-30 -58t-9 -67z" />
<glyph unicode="9" d="M65 1013q0 101 37 191t106.5 158t165.5 107t215 39q121 0 216 -36.5t161 -103t101.5 -158.5t35.5 -202q0 -146 -44 -262t-118 -219l-321 -456q-22 -30 -65.5 -50.5t-98.5 -20.5h-293l473 565q14 17 27.5 33.5t24.5 33.5q-94 -50 -214 -50q-73 0 -145.5 26t-131.5 79 t-95.5 134t-36.5 192zM382 1036q0 -223 207 -223q101 0 156 61t55 162q0 54 -16 96t-44 69.5t-68 41.5t-87 14q-48 0 -85.5 -16.5t-63.5 -46.5t-40 -70.5t-14 -87.5z" />
<glyph unicode=":" horiz-adv-x="542" d="M92 161q0 37 13.5 68.5t37.5 55t57 37.5t72 14q38 0 70.5 -14t57 -37.5t38.5 -55t14 -68.5t-14 -69.5t-38.5 -56t-57 -36.5t-70.5 -13q-39 0 -72 13t-57 36.5t-37.5 56t-13.5 69.5zM92 860q0 37 13.5 68.5t37.5 55t57 37.5t72 14q38 0 70.5 -14t57 -37.5t38.5 -55 t14 -68.5t-14 -69.5t-38.5 -56t-57 -36.5t-70.5 -13q-39 0 -72 13t-57 36.5t-37.5 56t-13.5 69.5z" />
<glyph unicode=";" horiz-adv-x="571" d="M103 860q0 37 13.5 68.5t37.5 55t57 37.5t72 14q38 0 70.5 -14t57 -37.5t38.5 -55t14 -68.5t-14 -69.5t-38.5 -56t-57 -36.5t-70.5 -13q-39 0 -72 13t-57 36.5t-37.5 56t-13.5 69.5zM111 180q0 33 12 61t35 49t54.5 33.5t70.5 12.5q46 0 79.5 -16t56 -43t33.5 -62.5 t11 -74.5q0 -51 -16.5 -109t-48.5 -116t-80.5 -114.5t-110.5 -102.5l-55 49q-23 18 -23 45q0 10 7 22t18 21q12 12 28.5 30t32.5 39.5t30 47t21 54.5q-35 3 -63.5 17.5t-49 37.5t-31.5 53t-11 66z" />
<glyph unicode="&#x3c;" d="M145 629v124l830 434v-220q0 -24 -12 -44t-39 -34l-291 -157q-52 -26 -119 -41q67 -15 119 -41l291 -157q28 -13 39.5 -33.5t11.5 -43.5v-220z" />
<glyph unicode="=" d="M128 386v227h932v-227h-932zM128 761v228h932v-228h-932z" />
<glyph unicode="&#x3e;" d="M213 196v220q0 24 12 43.5t39 33.5l291 157q52 26 119 41q-67 15 -119 41l-291 157q-28 14 -39.5 34t-11.5 44v220l829 -434v-124z" />
<glyph unicode="?" horiz-adv-x="965" d="M62 1356q38 32 82.5 59.5t96 48.5t110.5 32.5t127 11.5q96 0 173.5 -25.5t132 -73t83.5 -114.5t29 -149q0 -78 -21.5 -135t-54.5 -99t-72 -72.5t-74.5 -56.5t-61.5 -51.5t-33 -57.5l-29 -144h-217l-23 165q-8 50 10.5 87.5t50.5 68t72 57.5t75 58t59 69.5t24 91.5 q0 61 -40.5 98t-110.5 37q-54 0 -90.5 -11.5t-63 -25.5t-46 -25t-38.5 -11q-44 0 -66 38zM251 161q0 37 14 68.5t38 55t56.5 37.5t71.5 14q38 0 71 -14t57.5 -37.5t38 -55t13.5 -68.5t-13.5 -69.5t-38 -56t-57.5 -36.5t-71 -13q-39 0 -71.5 13t-56.5 36.5t-38 56t-14 69.5z " />
<glyph unicode="@" horiz-adv-x="1739" d="M81 609q0 108 28.5 211.5t82 194.5t128 168t167 132.5t200 86.5t225.5 31q99 0 194 -22.5t179.5 -65.5t155.5 -105.5t122.5 -142t80 -175.5t28.5 -204q0 -110 -33 -206.5t-93 -169t-142.5 -114.5t-179.5 -42q-33 0 -64 7t-58 21.5t-49 39t-35 58.5q-61 -68 -128 -96.5 t-144 -28.5q-67 0 -116.5 23t-83.5 64t-51 97.5t-17 123.5q0 58 15 118.5t44.5 116t75 105.5t107 86t140 57.5t173.5 21.5q45 0 82 -3.5t68.5 -9.5t60 -15.5t58.5 -22.5l-101 -388q-13 -55 -13.5 -91t9 -57t28.5 -29.5t46 -8.5q37 0 69 26t55.5 72t37.5 108.5t14 136.5 q0 127 -38 223.5t-108 162t-169 99.5t-220 34q-132 0 -242.5 -49t-190.5 -134.5t-124.5 -200t-44.5 -244.5q0 -164 50 -287.5t137.5 -206.5t207.5 -124.5t261 -41.5q81 0 149 8.5t123 22.5t98 31.5t74 34.5q33 17 57 10t35 -36l43 -110q-51 -34 -113 -62.5t-134 -50 t-155 -33.5t-177 -12q-193 0 -354.5 60t-280 171.5t-184.5 270.5t-66 355zM722 503q0 -60 23 -90t65 -30q23 0 45 7t41 24t35 44.5t26 68.5l73 280q-25 3 -50 3q-51 0 -98 -24.5t-82.5 -66.5t-56.5 -98t-21 -118z" />
<glyph unicode="A" horiz-adv-x="1456" d="M-27 0l578 1492h354l578 -1492h-269q-45 0 -72.5 21t-41.5 54l-88 260h-568l-88 -260q-11 -29 -40 -52t-72 -23h-271zM524 570h409l-138 409q-15 39 -33 91.5t-35 114.5q-15 -62 -32.5 -115.5t-32.5 -92.5z" />
<glyph unicode="B" horiz-adv-x="1371" d="M144 0v1492h549q155 0 263.5 -28.5t177 -81t100 -127t31.5 -166.5q0 -50 -14.5 -97t-45 -87.5t-79 -74t-115.5 -58.5q147 -36 217.5 -115.5t70.5 -206.5q0 -95 -36.5 -177.5t-108 -143t-176 -95t-238.5 -34.5h-596zM490 261h244q69 0 112.5 17.5t68 45t33.5 62.5t9 71 q0 41 -10.5 73.5t-36.5 55t-69 35t-109 12.5h-242v-372zM490 864h181q57 0 103 8.5t78.5 29t49.5 56t17 90.5q0 53 -13.5 88t-41 56.5t-70 31t-101.5 9.5h-203v-369z" />
<glyph unicode="C" horiz-adv-x="1342" d="M61 746q0 167 54.5 307t153 241.5t235.5 157.5t302 56q84 0 158 -14.5t138.5 -41t119 -63t96.5 -79.5l-117 -157q-11 -14 -26.5 -26t-42.5 -12q-18 0 -35 8.5t-35.5 20t-40.5 25.5t-52 25.5t-70.5 20t-94.5 8.5q-86 0 -157.5 -32t-123 -93t-79.5 -149.5t-28 -202.5 q0 -115 31 -203.5t85 -149.5t125.5 -93t153.5 -32q47 0 86 5t73 15.5t63.5 28.5t60.5 45q12 10 26.5 17t29.5 7q12 0 24.5 -4.5t23.5 -15.5l137 -145q-90 -118 -225.5 -177.5t-321.5 -59.5q-170 0 -304.5 57.5t-228 159.5t-144 242t-50.5 303z" />
<glyph unicode="D" horiz-adv-x="1558" d="M144 0v1492h580q174 0 317 -56.5t244 -155.5t157 -236t56 -298q0 -162 -56 -298.5t-157 -236t-244 -155.5t-317 -56h-580zM493 266h231q99 0 177 33.5t131.5 95.5t82.5 150.5t29 200.5q0 111 -29 200t-82.5 151t-131.5 95.5t-177 33.5h-231v-960z" />
<glyph unicode="E" horiz-adv-x="1173" d="M144 0v1492h961v-266h-612v-348h469v-256h-469v-356h612v-266h-961z" />
<glyph unicode="F" horiz-adv-x="1160" d="M144 0v1492h961v-266h-612v-378h509v-267h-509v-581h-349z" />
<glyph unicode="G" horiz-adv-x="1479" d="M58 746q0 167 55.5 307t158.5 241.5t249 157.5t326 56q93 0 175 -15t151 -42t126.5 -63.5t102.5 -79.5l-100 -153q-24 -36 -62 -44q-8 -2 -17 -2q-30 0 -63 20q-41 25 -77 43t-74 29t-80 16.5t-94 5.5q-97 0 -175 -34.5t-133 -97t-84.5 -150t-29.5 -195.5 q0 -119 32.5 -211t92.5 -155.5t143.5 -96.5t184.5 -33q62 0 113 12t99 33v226h-147q-33 0 -51.5 17.5t-18.5 44.5v190h531v-630q-115 -84 -244.5 -121.5t-270.5 -37.5q-184 0 -335.5 57.5t-259 159.5t-166 242t-58.5 303z" />
<glyph unicode="H" horiz-adv-x="1591" d="M144 0v1492h349v-624h606v624h348v-1492h-348v631h-606v-631h-349z" />
<glyph unicode="I" horiz-adv-x="636" d="M144 0v1492h349v-1492h-349z" />
<glyph unicode="J" horiz-adv-x="891" d="M20 10l19 202q3 27 21.5 43t52.5 16q17 0 42.5 -5.5t61.5 -5.5q50 0 87.5 14t62 46t37 84.5t12.5 129.5v958h346v-951q0 -125 -31.5 -227.5t-94.5 -175.5t-158 -113.5t-224 -40.5q-58 0 -115 6t-119 20z" />
<glyph unicode="K" horiz-adv-x="1446" d="M144 0v1492h346v-604h56q77 0 110 48l336 487q30 39 64.5 54t85.5 15h301l-443 -603q-47 -62 -101 -90q39 -14 70.5 -40t59.5 -67l451 -692h-310q-30 0 -50.5 4t-36 12.5t-26.5 20t-22 26.5l-338 520q-18 29 -46 40.5t-77 11.5h-84v-635h-346z" />
<glyph unicode="L" horiz-adv-x="1075" d="M144 0v1492h346v-1216h553v-276h-899z" />
<glyph unicode="M" horiz-adv-x="1966" d="M144 0v1492h265q23 0 39.5 -1t30 -6t24 -16t20.5 -30l384 -757q20 -39 39.5 -81t36.5 -86q17 45 36 88t41 82l383 754q10 19 21 30t24 16t30 6t40 1h264v-1492h-305v858q0 30 1.5 64.5t5.5 70.5l-397 -767q-18 -36 -49 -54t-71 -18h-48q-40 0 -71 18t-49 54l-397 769 q3 -37 5.5 -72t2.5 -65v-858h-306z" />
<glyph unicode="N" horiz-adv-x="1591" d="M144 0v1492h183q23 0 38 -2t27 -7.5t23.5 -16t25.5 -27.5l710 -896q-5 43 -7 83.5t-2 75.5v790h305v-1492h-180q-40 0 -67.5 13t-53.5 44l-704 890q4 -40 6 -77t2 -70v-800h-306z" />
<glyph unicode="O" horiz-adv-x="1668" d="M58 746q0 162 56 301.5t158 242t245 160.5t318 58q174 0 316.5 -58.5t244 -161t157.5 -242t56 -300.5q0 -162 -56 -301t-157.5 -242t-244 -161t-316.5 -58t-317.5 58t-245.5 161t-158 242.5t-56 300.5zM413 746q0 -112 28.5 -200t82.5 -149.5t132 -94t179 -32.5 q99 0 177 32.5t131.5 94t82 149.5t28.5 200q0 111 -28.5 199.5t-82 150t-131.5 94.5t-177 33q-100 0 -178.5 -33t-132.5 -94.5t-82.5 -150t-28.5 -199.5z" />
<glyph unicode="P" horiz-adv-x="1302" d="M144 0v1492h527q158 0 271 -37.5t186 -103t108 -154.5t35 -192q0 -112 -36 -205t-109.5 -160t-187 -104t-267.5 -37h-181v-499h-346zM490 760h181q135 0 194.5 64.5t59.5 180.5q0 51 -15.5 93t-47 72t-79 46.5t-112.5 16.5h-181v-473z" />
<glyph unicode="Q" horiz-adv-x="1669" d="M59 746q0 162 56 301.5t158 242t245.5 160.5t317.5 58t316.5 -58.5t244 -161t157.5 -242t56 -300.5q0 -96 -20 -184.5t-57.5 -166.5t-92.5 -144.5t-124 -117.5l378 -413h-285q-61 0 -110 16t-91 59l-185 208q-87 -19 -187 -19q-174 0 -317.5 58t-245.5 161t-158 242.5 t-56 300.5zM414 746q0 -112 28.5 -200t82.5 -149.5t132 -94t179 -32.5q99 0 177 32.5t131.5 94t82 150t28.5 199.5t-28.5 199.5t-82 150t-131.5 94.5t-177 33q-100 0 -178.5 -33t-132.5 -94.5t-82.5 -150t-28.5 -199.5z" />
<glyph unicode="R" horiz-adv-x="1346" d="M144 0v1492h486q162 0 276 -33.5t186 -92.5t105 -140t33 -176q0 -73 -19.5 -137.5t-57.5 -119.5t-93.5 -98t-128.5 -70q34 -17 63.5 -43.5t53.5 -62.5l317 -519h-313q-87 0 -125 66l-248 433q-17 28 -39 40.5t-61 12.5h-89v-552h-346zM490 791h140q71 0 120.5 17.5 t81 49.5t46 74.5t14.5 91.5q0 98 -64 153.5t-198 55.5h-140v-442z" />
<glyph unicode="S" horiz-adv-x="1134" d="M29 180l102 162q12 17 32 29t44 12q31 0 62 -19.5t70.5 -43t90.5 -43t121 -19.5q94 0 146.5 41.5t52.5 131.5q0 52 -29 85t-75.5 54.5t-106 38t-122 36.5t-121.5 49t-106 76.5t-75.5 119t-28.5 175.5q0 84 34 164t99.5 142.5t160.5 99.5t218 37q69 0 134 -10.5t123 -31.5 t109 -50.5t91 -65.5l-86 -161q-15 -25 -32 -37t-44 -12q-24 0 -51 14.5t-61.5 33t-78.5 33.5t-100 15q-97 0 -144.5 -41.5t-47.5 -112.5q0 -45 28.5 -74.5t75 -51t106.5 -39.5t122.5 -40t122.5 -51.5t106.5 -76t75 -112.5t28.5 -159q0 -103 -35.5 -193t-104 -157.5 t-168 -105.5t-226.5 -38q-70 0 -142 14t-140 40.5t-127 62t-103 79.5z" />
<glyph unicode="T" horiz-adv-x="1247" d="M31 1218v274h1186v-274h-420v-1218h-346v1218h-420z" />
<glyph unicode="U" horiz-adv-x="1533" d="M126 608v884h346v-883q0 -79 20 -140.5t58 -105.5t92.5 -67t124.5 -23t124.5 23t92.5 66.5t58 105t20 140.5v884h346v-884q0 -137 -44.5 -251.5t-127.5 -197.5t-202 -129t-267 -46q-150 0 -268.5 46t-201.5 129t-127 197.5t-44 251.5z" />
<glyph unicode="V" horiz-adv-x="1456" d="M-27 1492h279q45 0 72.5 -21t42.5 -54l288 -799q20 -52 40 -114t37 -129q14 68 32 129.5t39 113.5l287 799q11 29 40 52t72 23h281l-598 -1492h-314z" />
<glyph unicode="W" horiz-adv-x="2181" d="M4 1492h291q45 0 75 -20.5t40 -54.5l204 -778q9 -37 18.5 -80.5t18.5 -90.5q18 96 45 171l242 778q9 29 39.5 52t73.5 23h102q45 0 72.5 -21t42.5 -54l239 -778q27 -72 45 -163q8 46 17 86.5t18 76.5l205 778q8 30 39 52.5t74 22.5h272l-461 -1492h-313l-281 925 q-8 22 -15 47.5t-14 54.5q-7 -29 -14.5 -55t-15.5 -47l-285 -925h-313z" />
<glyph unicode="X" horiz-adv-x="1413" d="M-13 0l480 768l-462 724h346q34 0 50 -8.5t28 -29.5l297 -503q5 13 11.5 25.5t15.5 25.5l260 447q14 23 30 33t39 10h332l-468 -710l478 -782h-346q-34 0 -55 16.5t-33 38.5l-299 523q-8 -23 -18 -39l-279 -484q-14 -20 -33.5 -37.5t-50.5 -17.5h-323z" />
<glyph unicode="Y" horiz-adv-x="1372" d="M-28 1492h306q45 0 71 -21t43 -54l211 -434q27 -51 48.5 -95.5t37.5 -87.5q15 44 35 88.5t47 94.5l209 434q7 13 17.5 26.5t24 24.5t31.5 17.5t40 6.5h307l-541 -925v-567h-346v567z" />
<glyph unicode="Z" horiz-adv-x="1247" d="M29 0v133q0 24 8 47t22 42l703 1004h-676v266h1116v-125q0 -27 -8.5 -52.5t-24.5 -47.5l-700 -1001h711v-266h-1151z" />
<glyph unicode="[" horiz-adv-x="656" d="M154 -332v1926h458v-120q0 -32 -23 -54.5t-59 -22.5h-112v-1531h112q36 0 59 -22.5t23 -53.5v-122h-458z" />
<glyph unicode="\" horiz-adv-x="980" d="M52 1533h135q55 0 97.5 -27.5t62.5 -80.5l582 -1526h-135q-25 0 -50 7t-47 21.5t-40.5 36t-28.5 48.5z" />
<glyph unicode="]" horiz-adv-x="656" d="M44 -210q0 31 23 53.5t59 22.5h113v1531h-113q-36 0 -59 22.5t-23 54.5v120h459v-1926h-459v122z" />
<glyph unicode="^" d="M70 685l415 807h207l426 -807h-233q-28 0 -46.5 14t-29.5 35l-158 344q-18 38 -32.5 72.5t-25.5 68.5q-22 -67 -54 -141l-144 -344q-9 -22 -29 -35.5t-51 -13.5h-245z" />
<glyph unicode="_" horiz-adv-x="968" d="M81 -111h807v-198h-807v198z" />
<glyph unicode="`" horiz-adv-x="819" d="M33 1508h297q48 0 71.5 -15.5t40.5 -45.5l140 -251h-181q-36 0 -57 9.5t-45 33.5z" />
<glyph unicode="a" horiz-adv-x="1059" d="M35 276q0 57 28.5 116.5t99 108t190.5 81t302 36.5v46q0 93 -38 134.5t-109 41.5q-56 0 -92 -12.5t-64 -28t-55 -27.5t-64 -12q-33 0 -55 16.5t-37 38.5l-57 99q96 85 213.5 126.5t251.5 41.5q96 0 173.5 -31t131 -87t82.5 -132.5t29 -167.5v-664h-146q-45 0 -68 12.5 t-38 50.5l-23 59q-40 -34 -76.5 -59.5t-76 -43.5t-84 -26.5t-99.5 -8.5q-73 0 -132 19t-100.5 55.5t-64 91.5t-22.5 126zM338 292q0 -54 29.5 -76t87.5 -22q61 0 107 21.5t93 69.5v147q-95 -4 -156.5 -16.5t-97 -30.5t-49.5 -42t-14 -51z" />
<glyph unicode="b" horiz-adv-x="1176" d="M108 0v1533h317v-584q61 58 134.5 93.5t163.5 35.5t164 -36.5t126 -105t80 -164.5t28 -215q0 -129 -32.5 -234.5t-92.5 -180.5t-143 -116.5t-183 -41.5q-48 0 -86 9t-70 26t-58 40.5t-50 51.5l-12 -54q-8 -33 -26.5 -45t-49.5 -12h-210zM425 289q36 -39 78 -55.5 t85 -16.5q45 0 83 17t65 55.5t42.5 101.5t15.5 155q0 80 -12 135.5t-35 91t-57.5 51.5t-78.5 16q-58 0 -101 -26t-85 -75v-450z" />
<glyph unicode="c" horiz-adv-x="996" d="M52 534q0 115 34.5 214.5t101.5 172.5t166 115t229 42q125 0 219 -40t170 -116l-84 -112q-14 -17 -27.5 -27.5t-38.5 -10.5q-24 0 -42.5 11.5t-42 25t-55.5 25t-79 11.5q-58 0 -100.5 -21.5t-70.5 -61.5t-41 -98t-13 -130q0 -153 59 -235t162 -82q55 0 87.5 14t55 31 t41.5 31t47 14q38 0 58 -27l92 -114q-49 -56 -103.5 -91.5t-111 -55.5t-114 -27.5t-111.5 -7.5q-97 0 -186 36.5t-156 107t-106.5 172.5t-39.5 234z" />
<glyph unicode="d" horiz-adv-x="1176" d="M55 527q0 119 33 221t93 176t144 116t185 42q83 0 139.5 -23.5t102.5 -63.5v538h317v-1533h-197q-59 0 -77 53l-25 81q-32 -34 -66.5 -61.5t-75 -47.5t-87 -30.5t-101.5 -10.5q-83 0 -153.5 36.5t-121.5 106.5t-80.5 170.5t-29.5 229.5zM383 527q0 -84 12.5 -141 t34.5 -92.5t52.5 -51t68.5 -15.5q35 0 63 7t51.5 19t44.5 31t42 44v449q-36 40 -78 56t-88 16q-44 0 -81 -17.5t-64 -56t-42.5 -100t-15.5 -148.5z" />
<glyph unicode="e" horiz-adv-x="1103" d="M51 554q0 106 36.5 201.5t104.5 167t165 113.5t218 42q105 0 193 -32.5t151 -95t98.5 -153t35.5 -205.5q0 -36 -3 -58.5t-11.5 -36t-22.5 -18.5t-35 -5h-612q15 -133 80.5 -193t168.5 -60q55 0 95.5 13.5t71.5 30t57 29.5t55 13q38 0 57 -27l93 -114q-49 -56 -106 -91.5 t-117 -55.5t-120 -27.5t-114 -7.5q-112 0 -209.5 36t-171 108t-116 178.5t-42.5 247.5zM373 658h395q0 38 -9.5 74t-31.5 64t-58 45.5t-87 17.5q-90 0 -141.5 -51.5t-67.5 -149.5z" />
<glyph unicode="f" horiz-adv-x="749" d="M37 935v125h149v60q0 91 29.5 165t84 126t133.5 81t179 29q39 0 72 -5t69 -15l-7 -154q-1 -16 -8 -27t-18.5 -18t-25 -10t-26.5 -3q-42 0 -75 -8t-55 -29t-33 -55.5t-11 -86.5v-50h248v-217h-238v-843h-318v844l-69 14q-36 8 -58 25.5t-22 51.5z" />
<glyph unicode="g" horiz-adv-x="1096" d="M39 -87q0 71 41 118t115 75q-39 24 -61.5 61t-22.5 95q0 24 8 50t26 51t44.5 47.5t63.5 40.5q-83 44 -131 116t-48 168q0 80 33.5 144t92.5 108.5t139 68.5t173 24q135 0 240 -51h319v-116q0 -27 -15 -42t-50 -23l-77 -18q6 -23 9.5 -46t3.5 -49q0 -80 -33 -143.5 t-91 -108t-137 -68.5t-169 -24q-25 0 -48.5 1.5t-45.5 5.5q-35 -22 -35 -48q0 -27 28.5 -38.5t76 -16t107 -6t122 -7.5t122.5 -19t107 -43t76 -79.5t29 -126.5q0 -72 -35 -140.5t-102.5 -121.5t-166 -85.5t-225.5 -32.5q-125 0 -215.5 24t-150.5 62t-88.5 88.5t-28.5 104.5z M313 -46q0 -23 10 -41t34.5 -31.5t66 -21t104.5 -7.5q69 0 113 8t70 22.5t36.5 34t10.5 43.5q0 38 -34 55t-88 24t-121.5 8.5t-133.5 7.5q-30 -20 -49 -45t-19 -57zM362 728q0 -31 9 -56.5t27.5 -44.5t46.5 -29.5t67 -10.5q79 0 114.5 39.5t35.5 101.5q0 65 -35.5 101.5 t-114.5 36.5t-114.5 -36.5t-35.5 -101.5z" />
<glyph unicode="h" horiz-adv-x="1167" d="M108 0v1533h317v-564q57 49 124 79t161 30q87 0 154 -30t113 -84t69.5 -128t23.5 -161v-675h-317v675q0 78 -36 121.5t-106 43.5q-52 0 -97.5 -22t-88.5 -60v-758h-317z" />
<glyph unicode="i" horiz-adv-x="546" d="M82 1353q0 39 15 72.5t41 59t59.5 40t72.5 14.5q40 0 75.5 -14.5t62 -40t42 -59t15.5 -72.5q0 -38 -15.5 -71.5t-42 -58.5t-62 -40t-75.5 -15q-39 0 -72.5 15t-59.5 40t-41 58.5t-15 71.5zM115 0v1062h317v-1062h-317z" />
<glyph unicode="j" horiz-adv-x="546" d="M-82 -347l10 167q2 22 14.5 32t49.5 10t60.5 6t37 21.5t19.5 41.5t6 67v1064h317v-1064q0 -75 -19 -141t-62.5 -115.5t-114.5 -78.5t-177 -29q-39 0 -72 5t-69 14zM82 1353q0 39 15 72.5t41 59t59.5 40t72.5 14.5q40 0 75.5 -14.5t62 -40t42 -59t15.5 -72.5 q0 -38 -15.5 -71.5t-42 -58.5t-62 -40t-75.5 -15q-39 0 -72.5 15t-59.5 40t-41 58.5t-15 71.5z" />
<glyph unicode="k" horiz-adv-x="1143" d="M108 0v1533h317v-859h47q30 0 45 8.5t31 29.5l201 299q18 26 41.5 38.5t60.5 12.5h291l-275 -378q-39 -51 -92 -84q24 -17 43.5 -40t36.5 -52l299 -508h-287q-36 0 -61.5 12t-42.5 41l-201 376q-14 26 -29.5 33.5t-46.5 7.5h-61v-470h-317z" />
<glyph unicode="l" horiz-adv-x="532" d="M108 0v1533h317v-1533h-317z" />
<glyph unicode="m" horiz-adv-x="1742" d="M108 0v1062h196q59 0 78 -53l17 -58q27 28 55.5 51t62 40t72 26.5t84.5 9.5q96 0 159 -49.5t96 -132.5q27 49 65 84t82.5 56.5t94.5 31.5t99 10q91 0 161.5 -27t118 -78.5t72.5 -127t25 -170.5v-675h-318v675q0 165 -141 165q-65 0 -107.5 -42.5t-42.5 -122.5v-675h-317 v675q0 91 -36 128t-105 37q-43 0 -81.5 -19.5t-72.5 -52.5v-768h-317z" />
<glyph unicode="n" horiz-adv-x="1167" d="M108 0v1062h196q59 0 78 -53l18 -62q31 29 64 53.5t70 41.5t80.5 26.5t95.5 9.5q87 0 154 -30t113 -84t69.5 -128t23.5 -161v-675h-317v675q0 78 -36 121.5t-106 43.5q-52 0 -97.5 -22t-88.5 -60v-758h-317z" />
<glyph unicode="o" horiz-adv-x="1189" d="M52 534q0 126 39.5 226.5t111.5 171t172 108.5t222 38q121 0 220 -38t170.5 -108.5t111 -171.5t39.5 -226q0 -127 -39.5 -229t-111 -173.5t-170.5 -109.5t-220 -38q-122 0 -222 38t-172 109.5t-111.5 173.5t-39.5 229zM380 531q0 -158 52 -235t165 -77q110 0 161.5 77.5 t51.5 234.5q0 158 -51.5 235t-161.5 77q-113 0 -165 -77t-52 -235z" />
<glyph unicode="p" horiz-adv-x="1177" d="M108 -337v1399h196q59 0 78 -53l24 -78q62 67 141.5 109t188.5 42q83 0 154 -36.5t122 -106.5t80 -170.5t29 -228.5q0 -120 -33 -221.5t-93 -176t-143.5 -116.5t-184.5 -42q-83 0 -139.5 23.5t-102.5 63.5v-408h-317zM425 289q36 -39 78 -55.5t88 -16.5q44 0 81 17.5 t64 56t42.5 100t15.5 149.5q0 84 -12.5 141t-34.5 92.5t-52.5 51t-68.5 15.5q-70 0 -115 -26t-86 -75v-450z" />
<glyph unicode="q" horiz-adv-x="1176" d="M55 527q0 119 33 221t93 176t144 116t185 42q48 0 87 -8t71 -23.5t60 -37t53 -46.5l14 42q18 53 77 53h197v-1399h-317v453q-60 -59 -135 -95.5t-177 -36.5q-83 0 -153.5 36.5t-121.5 106.5t-80.5 170.5t-29.5 229.5zM383 527q0 -84 12.5 -141t34.5 -92.5t52.5 -51 t68.5 -15.5q35 0 63 7t51.5 19t44.5 31t42 44v449q-36 39 -78 55.5t-88 16.5q-44 0 -81 -17.5t-64 -56t-42.5 -100t-15.5 -148.5z" />
<glyph unicode="r" horiz-adv-x="781" d="M108 0v1062h188q24 0 39.5 -4t26.5 -13t16.5 -23t9.5 -35l16 -89q49 86 113.5 135t147.5 49q72 0 116 -33l-20 -234q-5 -23 -17 -31t-32 -8q-8 0 -21.5 1t-28 2.5t-29.5 3t-27 1.5q-70 0 -111 -36.5t-70 -102.5v-645h-317z" />
<glyph unicode="s" horiz-adv-x="912" d="M33 115l73 116q12 20 31.5 32t48.5 12q28 0 50 -12t47.5 -26.5t60 -26.5t86.5 -12q37 0 62.5 7.5t41 21t22.5 29.5t7 34q0 32 -21.5 52t-56 35t-79.5 28t-91 29.5t-90.5 39.5t-79 58t-56 86.5t-21.5 123.5q0 68 26 129t78 107t131 73t184 27q57 0 111 -10t101 -28.5 t86 -43.5t69 -55l-72 -112q-12 -19 -26 -27t-35 -8q-23 0 -45.5 9.5t-48.5 21t-58.5 21t-74.5 9.5q-60 0 -92.5 -23t-32.5 -64q0 -30 21 -49.5t55.5 -34t78.5 -28t90 -30t90.5 -38.5t79 -54t55.5 -78t21 -111q0 -79 -28.5 -145.5t-85.5 -114.5t-140.5 -74.5t-191.5 -26.5 q-54 0 -108.5 10t-105 27.5t-94 41.5t-73.5 52z" />
<glyph unicode="t" horiz-adv-x="786" d="M27 905v124l169 33l62 259q12 49 70 49h166v-310h263v-217h-263v-528q0 -37 17.5 -61t51.5 -24q17 0 29 4t21 8.5t16.5 8t17.5 3.5q14 0 23 -6.5t18 -21.5l96 -150q-61 -46 -138 -69t-159 -23q-76 0 -133.5 22t-97 62.5t-60 97.5t-20.5 128v549h-90q-25 0 -42 15.5 t-17 46.5z" />
<glyph unicode="u" horiz-adv-x="1167" d="M97 388v674h318v-674q0 -79 35.5 -122t105.5 -43q52 0 97.5 22t88.5 60v757h318v-1062h-197q-59 0 -78 53l-18 62q-31 -30 -63.5 -54t-70 -41t-81 -26.5t-94.5 -9.5q-87 0 -154 30t-113.5 84.5t-70 128t-23.5 161.5z" />
<glyph unicode="v" horiz-adv-x="1103" d="M-4 1062h264q34 0 57 -16t31 -39l148 -477q19 -58 34 -113.5t26 -110.5q23 111 62 224l154 477q8 24 30.5 39.5t53.5 15.5h252l-412 -1062h-288z" />
<glyph unicode="w" horiz-adv-x="1675" d="M5 1062h254q34 0 57 -16t31 -39l107 -477q13 -54 23 -104.5t19 -101.5q13 51 28 101.5t32 104.5l133 478q8 24 30.5 39.5t53.5 15.5h141q34 0 57 -16t31 -39l127 -478q15 -54 30.5 -105t27.5 -103q8 51 19.5 102t25.5 106l113 477q8 24 30.5 39.5t52.5 15.5h242 l-330 -1062h-258q-20 0 -34.5 12.5t-22.5 40.5l-152 530q-11 36 -19.5 70.5t-15.5 70.5q-7 -36 -16 -72t-20 -71l-154 -528q-15 -53 -67 -53h-246z" />
<glyph unicode="x" horiz-adv-x="1114" d="M-9 0l356 549l-342 513h305q34 0 50 -9t28 -29l190 -314q6 18 15 36t20 36l136 237q14 23 30 33t39 10h291l-342 -499l356 -563h-305q-34 0 -55 16.5t-33 38.5l-189 326q-5 -17 -12.5 -32.5t-15.5 -29.5l-156 -264q-14 -20 -33.5 -37.5t-50.5 -17.5h-282z" />
<glyph unicode="y" horiz-adv-x="1101" d="M-8 1062h280q37 0 57 -16.5t29 -38.5l174 -458q25 -62 40 -128q11 33 22.5 65.5t23.5 64.5l158 456q9 24 33 39.5t51 15.5h256l-567 -1337q-14 -32 -34.5 -47t-65.5 -15h-238l205 430z" />
<glyph unicode="z" horiz-adv-x="954" d="M47 0v129q0 19 10.5 49t30.5 55l448 593h-460v236h821v-127q0 -33 -11.5 -63.5t-29.5 -50.5l-443 -585h474v-236h-840z" />
<glyph unicode="{" horiz-adv-x="635" d="M47 543v177q31 0 52 10t33 28t18 43t6 55q0 45 -6 91t-13 92t-12.5 93.5t-5.5 94.5q0 83 24 151t74.5 116t128.5 74t186 26h54v-137q0 -16 -7.5 -27.5t-17.5 -18.5t-21.5 -10.5t-19.5 -3.5q-65 0 -95 -40t-30 -111q0 -56 4.5 -106t10 -97t10 -92t4.5 -91 q0 -39 -10.5 -74.5t-31.5 -66t-51.5 -53t-70.5 -34.5q40 -12 70.5 -35.5t51.5 -53.5t31.5 -66.5t10.5 -74.5q0 -46 -4.5 -91t-10 -91.5t-10 -96.5t-4.5 -107q0 -71 30.5 -110.5t94.5 -39.5q8 0 19.5 -3.5t21.5 -11t17.5 -18.5t7.5 -28v-137h-54q-109 0 -186.5 26t-128 75 t-74.5 116.5t-24 150.5q0 47 5.5 94t12.5 93t13 92t6 92q0 61 -23.5 98.5t-85.5 37.5z" />
<glyph unicode="|" horiz-adv-x="552" d="M154 -348v1942h245v-1942h-245z" />
<glyph unicode="}" horiz-adv-x="635" d="M50 -195q0 16 7.5 27.5t17.5 19t21.5 11t19.5 3.5q65 0 95 40t30 110q0 56 -5 106.5t-10 97t-9.5 91.5t-4.5 91q0 38 10 74.5t31 66.5t52 53.5t71 35.5q-40 12 -71 34.5t-52 53t-31 66t-10 74.5q0 46 4.5 91t9.5 92t10 97t5 106q0 71 -30.5 111t-94.5 40q-8 0 -19.5 3.5 t-21.5 10.5t-17.5 18.5t-7.5 27.5v137h53q109 0 187 -26t128.5 -74t74.5 -116t24 -151q0 -47 -5.5 -94.5t-12.5 -93.5t-13 -92t-6 -91q0 -30 6 -55t18 -43t33 -28t52 -10v-177q-61 0 -85 -37.5t-24 -98.5q0 -45 6 -91.5t13 -92.5t12.5 -93t5.5 -94q0 -83 -24 -150.5 t-74.5 -116.5t-128.5 -75t-187 -26h-53v137z" />
<glyph unicode="~" d="M85 394q0 87 23 157t66 118.5t106 74.5t143 26q54 0 101.5 -12t88.5 -26.5t75.5 -26.5t62.5 -12q49 0 75.5 32t26.5 93h256q0 -87 -23 -156.5t-66 -118t-106 -75t-143 -26.5q-54 0 -101.5 12t-88.5 27t-75.5 26.5t-62.5 11.5q-49 0 -75.5 -31.5t-26.5 -93.5h-256z" />
<glyph unicode="&#xa1;" horiz-adv-x="586" d="M112 903q0 37 13.5 69.5t37.5 56t57 36.5t72 13q38 0 70.5 -13t57 -36.5t38.5 -56t14 -69.5t-14 -68.5t-38.5 -55t-57 -37.5t-70.5 -14q-39 0 -72 14t-57 37.5t-37.5 55t-13.5 68.5zM146 203q0 94 11.5 187t29.5 189h215q18 -95 29.5 -188.5t11.5 -187.5v-540h-297v540z " />
<glyph unicode="&#xa2;" d="M101 531q0 111 34.5 208t102 169.5t166.5 116.5t228 50l14 144q3 28 25.5 51t58.5 23h117l-24 -232q78 -17 142 -52t119 -87l-82 -108q-12 -17 -25 -26.5t-38 -9.5q-15 0 -29.5 5t-31 13t-36 16.5t-42.5 16.5l-62 -612q44 6 73.5 20t52.5 28t42.5 24t42.5 10q18 0 33 -7 t25 -19l88 -109q-40 -45 -85.5 -77t-94.5 -52.5t-99.5 -31.5t-100.5 -15l-14 -129q-3 -28 -25.5 -51.5t-58.5 -23.5h-116l21 209q-89 16 -165.5 59.5t-133.5 112t-89.5 161t-32.5 205.5zM415 531q0 -110 33.5 -182.5t98.5 -106.5l61 598q-101 -20 -147 -100.5t-46 -208.5z " />
<glyph unicode="&#xa3;" d="M28 603v98q0 41 26 71.5t78 30.5h86v221q0 97 30 184.5t90.5 154.5t152.5 106t217 39q83 0 150 -21t119.5 -58t92.5 -88t70 -109l-127 -80q-43 -23 -83.5 -20t-74.5 38q-39 40 -70.5 59.5t-76.5 19.5q-83 0 -123.5 -57.5t-40.5 -166.5v-222h389v-121q0 -15 -6.5 -29 t-18.5 -25.5t-28 -18t-35 -6.5h-301v-160q0 -61 -23 -110.5t-62 -92.5q46 10 92 15.5t93 5.5h514v-130q0 -23 -9.5 -46.5t-27 -42t-42.5 -30.5t-56 -12h-977v190q34 6 65 19.5t54.5 34t38 49.5t14.5 66v244h-190z" />
<glyph unicode="&#xa4;" d="M92 1030l160 152l154 -152q42 23 89 35t99 12q49 0 94.5 -11.5t86.5 -32.5l157 155l158 -154l-156 -153q24 -43 36.5 -91t12.5 -100q0 -50 -12 -96t-33 -87l158 -156l-160 -152l-154 151q-43 -23 -89.5 -35t-98.5 -12q-49 0 -94.5 11.5t-85.5 31.5l-158 -153l-158 153 l156 154q-24 43 -36.5 90.5t-12.5 99.5q0 50 11.5 96.5t34.5 87.5zM438 690q0 -33 12.5 -62.5t33.5 -52t49 -35.5t61 -13t61.5 13t50 35.5t34 52t12.5 62.5q0 35 -12.5 64.5t-34 52t-50 35.5t-61.5 13t-61 -13t-49 -35.5t-33.5 -52t-12.5 -64.5z" />
<glyph unicode="&#xa5;" d="M-17 1492h264q45 0 72.5 -20t41.5 -55l170 -435q23 -54 39 -99.5t27 -90.5q10 45 24.5 91t36.5 99l168 435q12 29 41 52t72 23h266l-400 -838h255v-169h-307v-90h307v-169h-307v-226h-318v226h-307v169h307v90h-307v169h255z" />
<glyph unicode="&#xa6;" horiz-adv-x="559" d="M157 -337v839h245v-839h-245zM157 756v838h245v-838h-245z" />
<glyph unicode="&#xa7;" horiz-adv-x="1047" d="M79 691q0 80 40.5 144.5t121.5 103.5q-45 40 -73 96.5t-28 134.5q0 68 26.5 129t78.5 107t131 73t184 27q57 0 111 -10t101 -28.5t86 -43.5t69 -55l-72 -112q-12 -19 -26 -26.5t-35 -7.5q-23 0 -45.5 9t-48.5 21t-59 21t-75 9q-74 0 -109.5 -27.5t-35.5 -70.5 q0 -27 23.5 -48.5t62.5 -41t88.5 -39t102 -42t102 -50t88.5 -64t62.5 -83.5t23.5 -107q0 -81 -37.5 -149.5t-122.5 -111.5q44 -38 71 -88t27 -119q0 -79 -28.5 -145.5t-85.5 -115t-140.5 -75t-191.5 -26.5q-54 0 -108.5 10.5t-105 27.5t-93.5 41.5t-74 51.5l74 117 q12 20 31 32t49 12q28 0 49.5 -12.5t49 -26.5t63.5 -26.5t94 -12.5q67 0 104 24t37 72q0 38 -24 64.5t-63 47t-89 37.5t-102.5 37.5t-102.5 46.5t-89 62t-63 86.5t-24 119.5zM359 741q0 -36 25 -62t64.5 -48t91 -42t104.5 -42q29 17 41 41t12 52q0 37 -24 63.5t-64 48 t-90.5 41t-102.5 42.5q-30 -19 -43.5 -41.5t-13.5 -52.5z" />
<glyph unicode="&#xa8;" horiz-adv-x="819" d="M27 1326q0 34 13 63.5t35 51.5t51.5 35t61.5 13q35 0 65.5 -13t53.5 -35t36 -51.5t13 -63.5q0 -33 -13 -61.5t-36 -49.5t-53.5 -33.5t-65.5 -12.5q-33 0 -62 12.5t-51 33.5t-35 49.5t-13 61.5zM463 1326q0 34 12.5 63.5t35.5 51.5t52.5 35t63.5 13q35 0 65 -13t52.5 -35 t35.5 -51.5t13 -63.5q0 -33 -13 -61.5t-35.5 -49.5t-52.5 -33.5t-65 -12.5q-34 0 -63.5 12.5t-52.5 33.5t-35.5 49.5t-12.5 61.5z" />
<glyph unicode="&#xa9;" horiz-adv-x="1673" d="M74 746q0 105 27 203t76.5 182t119.5 154t155 119.5t181.5 76.5t202.5 27q105 0 203 -27t182.5 -76.5t154.5 -119.5t119.5 -154t76.5 -181.5t27 -203.5q0 -104 -27 -201.5t-76.5 -181.5t-119.5 -154t-154.5 -119.5t-182.5 -76.5t-203 -27t-202 27t-182 76.5t-155 119.5 t-119.5 154t-76.5 181t-27 202zM244 746q0 -130 45.5 -242.5t125.5 -196t188 -131t233 -47.5q126 0 235 47.5t189.5 131t127 196t46.5 242.5q0 87 -21 167t-59.5 149.5t-93 126t-121 96.5t-143 62t-160.5 22q-125 0 -233 -48t-188 -132.5t-125.5 -198.5t-45.5 -244zM385 750 q0 104 37 191.5t101 151.5t150 99.5t185 35.5q118 0 203 -41t137 -103l-84 -111q-8 -8 -20.5 -19t-32.5 -11t-35 9.5t-33.5 20.5t-45.5 20t-73 9q-103 0 -155.5 -68t-52.5 -184q0 -61 13.5 -108.5t38 -79.5t59 -48t75.5 -16q48 0 76 8.5t46.5 19t32 19.5t33.5 10 q12 0 23.5 -6t19.5 -15l105 -108q-55 -77 -145 -116.5t-207 -39.5q-103 0 -187 37.5t-142 102.5t-90 152t-32 188z" />
<glyph unicode="&#xaa;" horiz-adv-x="751" d="M65 1034q0 33 15.5 68.5t57 65.5t113 50.5t182.5 23.5v16q0 47 -20 64t-54 17q-31 0 -50 -6t-35 -13t-32.5 -13.5t-41.5 -6.5q-24 0 -39.5 13.5t-26.5 27.5l-39 71q60 54 134 78t159 24q60 0 109.5 -19t84 -54t53.5 -81.5t19 -101.5v-396h-106q-31 0 -47 8.5t-29 34.5 l-12 28q-24 -20 -45.5 -34.5t-44 -25t-48.5 -15t-59 -4.5q-93 0 -145.5 47t-52.5 133zM282 1044q0 -24 12 -32t43 -8q28 0 50 8.5t46 31.5v66q-48 -2 -77.5 -8t-46 -15t-22 -19.5t-5.5 -23.5z" />
<glyph unicode="&#xab;" horiz-adv-x="982" d="M83 538v40l268 411l105 -47q40 -17 46.5 -49t-14.5 -68l-122 -220q-18 -31 -37 -47q19 -17 37 -48l122 -221q20 -36 14 -67.5t-46 -48.5l-105 -47zM452 538v40l268 411l105 -47q40 -17 46.5 -49t-14.5 -68l-122 -220q-18 -31 -37 -47q19 -17 37 -48l122 -221 q20 -36 14 -67.5t-46 -48.5l-105 -47z" />
<glyph unicode="&#xac;" d="M121 574v228h932v-513h-269v285h-663z" />
<glyph unicode="&#xae;" horiz-adv-x="1673" d="M74 746q0 105 27 203t76.5 182t119.5 154t155 119.5t182 76.5t202 27t203 -27t182.5 -76.5t154.5 -119.5t119.5 -154t76.5 -181.5t27 -203.5q0 -104 -27 -201.5t-76.5 -181.5t-119.5 -154t-154.5 -119.5t-182.5 -76.5t-203 -27t-202 27t-182 76.5t-155 119.5t-119.5 154 t-76.5 181t-27 202zM244 746q0 -130 45.5 -242.5t125.5 -196t188 -131t233 -47.5q119 0 221.5 42t182.5 117h-222q-56 0 -78 40l-94 236q-11 17 -24 25t-38 8h-32v-309h-275v922h361q102 0 176.5 -18t122 -53t70 -86.5t22.5 -116.5q0 -43 -10.5 -82.5t-31.5 -72.5t-54 -60 t-79 -44q30 -14 49.5 -39.5t37.5 -57.5l128 -264q77 83 121 192.5t44 237.5q0 87 -21 167t-59.5 149.5t-93 126t-121 96.5t-143 62t-160.5 22q-125 0 -233 -48t-188 -132.5t-125.5 -198t-45.5 -244.5zM752 785h65q49 0 77.5 8t42.5 22t17.5 36t3.5 50q0 27 -3.5 47 t-15.5 33.5t-36 21t-65 7.5h-86v-225z" />
<glyph unicode="&#xaf;" horiz-adv-x="819" d="M92 1230v194h635v-194h-635z" />
<glyph unicode="&#xb0;" horiz-adv-x="851" d="M52 1146q0 76 29 142.5t79 115.5t118 77.5t147 28.5t147.5 -28.5t119 -77.5t79.5 -115.5t29 -142.5q0 -74 -29 -140t-79.5 -115t-119 -78.5t-147.5 -29.5t-147 29.5t-118 78.5t-79 115t-29 140zM271 1144q0 -34 11.5 -63t32 -51t48.5 -34.5t62 -12.5t62 12.5t48.5 34.5 t32 51t11.5 63q0 35 -11.5 65t-32 52t-48.5 35t-62 13t-62 -13t-48.5 -35t-32 -52t-11.5 -65z" />
<glyph unicode="&#xb1;" d="M87 82v227h1014v-227h-1014zM87 730v228h377v345h258v-345h379v-228h-379v-327h-258v327h-377z" />
<glyph unicode="&#xb2;" horiz-adv-x="684" d="M46 922v71q0 20 8 43.5t29 43.5l203 198q20 20 38 44.5t31.5 48.5t21 47t7.5 43q0 25 -10.5 43.5t-36.5 18.5q-22 0 -34.5 -10t-25.5 -33q-8 -13 -17 -22.5t-21 -15t-27.5 -6.5t-38.5 3l-127 20q9 62 34.5 107t65 74.5t91.5 43.5t112 14q66 0 115.5 -18.5t83 -50 t49.5 -73t16 -87.5q0 -42 -12.5 -77t-33.5 -66.5t-49 -61.5l-56 -60l-104 -105q34 10 67 16t59 6h70q36 0 56 -19t20 -51v-129h-584z" />
<glyph unicode="&#xb3;" horiz-adv-x="684" d="M44 1126l98 39q39 14 71 7t44 -31q14 -27 33.5 -37t38.5 -10q31 0 48 18t17 48q0 26 -5.5 41t-20.5 23t-40 10.5t-63 2.5v144q41 0 66 5t39 14t18 23.5t4 33.5q0 27 -10 44.5t-43 17.5q-25 0 -37.5 -9t-22.5 -28q-8 -15 -16.5 -25.5t-19.5 -15.5t-26 -5.5t-38 3.5 l-117 20q9 62 35 107t64 74.5t86.5 43.5t103.5 14q63 0 112 -18t81 -47t48.5 -65t16.5 -72q0 -63 -23.5 -107.5t-79.5 -71.5q57 -19 86 -55t29 -94q0 -68 -25 -116t-65 -79t-90 -45t-100 -14q-53 0 -97.5 8.5t-81.5 32.5t-66.5 65t-51.5 106z" />
<glyph unicode="&#xb4;" horiz-adv-x="819" d="M256 1196l139 251q17 30 41 45.5t72 15.5h307l-266 -269q-24 -24 -45.5 -33.5t-57.5 -9.5h-190z" />
<glyph unicode="&#xb5;" horiz-adv-x="1372" d="M154 -210v1272h317v-616q0 -79 36 -127t105 -48q70 0 115.5 37.5t72.5 105.5v648h317v-729q0 -60 26 -89.5t74 -29.5h87v-122q0 -19 -13.5 -37.5t-38 -33.5t-60 -23.5t-79.5 -8.5q-43 0 -83.5 12t-74 36.5t-60.5 62t-43 88.5q-51 -80 -114 -122.5t-146 -42.5 q-98 0 -165 45q14 -46 19 -96.5t5 -94.5v-214h-158q-67 0 -103 33t-36 94z" />
<glyph unicode="&#xb6;" horiz-adv-x="1576" d="M61 1053q0 96 34 177t96 139t149.5 90.5t194.5 32.5h968v-257h-215v-1456h-276v1456h-201v-1456h-276v842q-106 0 -194 34.5t-150 93.5t-96 137.5t-34 166.5z" />
<glyph unicode="&#xb7;" horiz-adv-x="589" d="M65 610q0 46 17.5 87t49 71.5t73 48t89.5 17.5t90.5 -17.5t73.5 -48t49 -71.5t18 -87t-18 -86.5t-49 -70.5t-73.5 -47.5t-90.5 -17.5t-89.5 17.5t-73 47.5t-49 70.5t-17.5 86.5z" />
<glyph unicode="&#xb8;" horiz-adv-x="819" d="M222 -348l29 95q6 28 35 28q15 0 29.5 -3.5t35.5 -3.5q27 0 38 9t11 20q0 23 -31 33t-106 22l67 193h176l-26 -96q49 -12 81.5 -28.5t51.5 -36.5t27 -43.5t8 -49.5q0 -36 -20 -64.5t-55.5 -49t-86.5 -31.5t-112 -11q-42 0 -77.5 4.5t-74.5 12.5z" />
<glyph unicode="&#xb9;" horiz-adv-x="684" d="M58 1486l248 204h191v-629h104v-139h-463v139h133v305l6 56l-51 -38q-15 -11 -30.5 -14t-29 0.5t-23.5 10t-15 13.5z" />
<glyph unicode="&#xba;" horiz-adv-x="817" d="M56 1184q0 77 26.5 137.5t73.5 103t112 65t143 22.5q77 0 141 -22.5t110.5 -65t72.5 -103t26 -137.5q0 -78 -26 -140t-72.5 -105t-111 -66t-140.5 -23q-78 0 -143 23t-112 66t-73.5 105t-26.5 140zM304 1182q0 -83 25 -118.5t82 -35.5q52 0 77 35.5t25 118.5t-25 117.5 t-77 34.5q-57 0 -82 -34.5t-25 -117.5z" />
<glyph unicode="&#xbb;" horiz-adv-x="982" d="M111 221.5q-7 31.5 14 67.5l123 221q17 31 37 48q-18 16 -37 47l-123 220q-20 36 -13.5 68t46.5 49l104 47l268 -411v-40l-268 -412l-104 47q-40 17 -47 48.5zM480 221.5q-7 31.5 14 67.5l123 221q17 31 37 48q-18 16 -37 47l-123 220q-20 36 -13.5 68t46.5 49l104 47 l268 -411v-40l-268 -412l-104 47q-40 17 -47 48.5z" />
<glyph unicode="&#xbc;" horiz-adv-x="1539" d="M62 1289l248 204h191v-629h104v-139h-463v139h133v305l6 56l-51 -38q-15 -11 -30.5 -14t-29 0.5t-23.5 10t-15 13.5zM204 0l868 1392q31 48 70 74t94 26h135l-877 -1405q-16 -26 -33 -42.5t-36 -26.5t-40.5 -14t-45.5 -4h-135zM828 292l336 476h219v-466h82v-109 q0 -15 -11.5 -27.5t-29.5 -12.5h-41v-153h-188v153h-281q-30 0 -46 12.5t-22 32.5zM1033 302h162v112q0 27 1.5 58.5t6.5 65.5z" />
<glyph unicode="&#xbd;" horiz-adv-x="1524" d="M63 1289l248 204h191v-629h104v-139h-463v139h133v305l6 56l-51 -38q-15 -11 -30.5 -14t-29 0.5t-23.5 10t-15 13.5zM166 0l868 1392q31 48 70 74t94 26h135l-877 -1405q-16 -26 -33 -42.5t-36 -26.5t-40.5 -14t-45.5 -4h-135zM862 0v71q0 20 8 43.5t29 43.5l203 198 q20 20 38 44.5t31.5 48.5t21 47t7.5 43q0 25 -10.5 43.5t-36.5 18.5q-22 0 -34.5 -10t-25.5 -33q-8 -13 -17 -22.5t-21 -15t-27.5 -6.5t-38.5 3l-127 20q9 62 34.5 107t65 74.5t91.5 43.5t112 14q66 0 115.5 -18.5t83 -50t49.5 -73t16 -87.5q0 -42 -12.5 -77t-33.5 -66.5 t-49 -61.5l-56 -60l-104 -105q34 10 67 16t59 6h70q36 0 56 -19t20 -51v-129h-584z" />
<glyph unicode="&#xbe;" horiz-adv-x="1549" d="M68 929l98 39q39 14 71 7t44 -31q14 -27 33.5 -37t38.5 -10q31 0 48 18t17 48q0 26 -5.5 41t-20.5 23t-40 10.5t-63 2.5v144q41 0 66 5t39 14t18 23.5t4 33.5q0 27 -10 44.5t-43 17.5q-25 0 -37.5 -9t-22.5 -28q-8 -15 -16.5 -25.5t-19.5 -15.5t-26 -5.5t-38 3.5l-117 20 q9 62 35 107t64 74.5t86.5 43.5t103.5 14q63 0 112 -18t81 -47t48.5 -65t16.5 -72q0 -63 -23.5 -107.5t-79.5 -71.5q57 -19 86 -55t29 -94q0 -68 -25 -116t-65 -79t-90 -45t-100 -14q-53 0 -97.5 8.5t-81.5 32.5t-66.5 65t-51.5 106zM219 0l868 1392q31 48 70 74t94 26h135 l-877 -1405q-16 -26 -33 -42.5t-36 -26.5t-40.5 -14t-45.5 -4h-135zM842 292l336 476h219v-466h82v-109q0 -15 -11.5 -27.5t-29.5 -12.5h-41v-153h-188v153h-281q-30 0 -46 12.5t-22 32.5zM1047 302h162v112q0 27 1.5 58.5t6.5 65.5z" />
<glyph unicode="&#xbf;" horiz-adv-x="960" d="M71 0q0 78 21.5 132t54 92t72 63.5t75 48t61.5 45.5t33 55l29 143h217l22 -164q7 -55 -11 -91.5t-50.5 -62t-72.5 -46.5t-74.5 -46t-58 -58t-23.5 -83q0 -61 40 -97.5t111 -36.5q53 0 90 11t63 25t45.5 25t39.5 11q44 0 65 -38l84 -129q-39 -32 -83 -59.5t-95 -48.5 t-110 -32.5t-128 -11.5q-96 0 -173 24.5t-131.5 70t-83.5 111t-29 147.5zM351 904q0 37 14 69t38 55.5t57 37t71 13.5t71 -13.5t57.5 -37t38.5 -55.5t14 -69t-14 -69t-38.5 -55.5t-57.5 -37t-71 -13.5q-39 0 -71.5 13.5t-56.5 37t-38 55.5t-14 69z" />
<glyph unicode="&#xc0;" horiz-adv-x="1456" d="M-27 0l578 1492h354l578 -1492h-269q-45 0 -72.5 21t-41.5 54l-88 260h-568l-88 -260q-11 -29 -40 -52t-72 -23h-271zM243 1912h329q24 0 41.5 -1.5t31 -6t25.5 -14t25 -25.5l214 -277h-231q-18 0 -31.5 0.5t-25.5 3.5t-22.5 9t-22.5 17zM524 570h409l-138 409 q-15 39 -33 91.5t-35 114.5q-15 -62 -32.5 -115.5t-32.5 -92.5z" />
<glyph unicode="&#xc1;" horiz-adv-x="1456" d="M-27 0l578 1492h354l578 -1492h-269q-45 0 -72.5 21t-41.5 54l-88 260h-568l-88 -260q-11 -29 -40 -52t-72 -23h-271zM524 570h409l-138 409q-15 39 -33 91.5t-35 114.5q-15 -62 -32.5 -115.5t-32.5 -92.5zM530 1588l194 277q12 16 24 26t25.5 14.5t31.5 5.5t42 1h350 l-331 -292q-12 -11 -23 -17.5t-23.5 -9.5t-26.5 -4t-31 -1h-232z" />
<glyph unicode="&#xc2;" horiz-adv-x="1456" d="M-27 0l578 1492h354l578 -1492h-269q-45 0 -72.5 21t-41.5 54l-88 260h-568l-88 -260q-11 -29 -40 -52t-72 -23h-271zM337 1588l250 285h289l250 -285h-229q-18 0 -45 7t-56 40l-51 80q-5 7 -9.5 13.5t-8.5 13.5q-4 -7 -9 -13.5t-10 -13.5l-51 -80q-29 -34 -55.5 -40.5 t-44.5 -6.5h-220zM524 570h409l-138 409q-15 39 -33 91.5t-35 114.5q-15 -62 -32.5 -115.5t-32.5 -92.5z" />
<glyph unicode="&#xc3;" horiz-adv-x="1456" d="M-27 0l578 1492h354l578 -1492h-269q-45 0 -72.5 21t-41.5 54l-88 260h-568l-88 -260q-11 -29 -40 -52t-72 -23h-271zM340 1578q0 56 15 108.5t45.5 93.5t74 65.5t100.5 24.5t98 -15.5t72 -34.5t56.5 -34.5t52.5 -15.5q23 0 38 9t24.5 23t14 29.5t4.5 30.5h193 q0 -56 -15.5 -108.5t-45 -93t-73.5 -64.5t-102 -24q-57 0 -97.5 15.5t-71.5 34t-56.5 34t-52.5 15.5q-23 0 -38 -9t-24.5 -23t-13.5 -30.5t-4 -30.5h-194zM524 570h409l-138 409q-15 39 -33 91.5t-35 114.5q-15 -62 -32.5 -115.5t-32.5 -92.5z" />
<glyph unicode="&#xc4;" horiz-adv-x="1456" d="M-27 0l578 1492h354l578 -1492h-269q-45 0 -72.5 21t-41.5 54l-88 260h-568l-88 -260q-11 -29 -40 -52t-72 -23h-271zM331 1708q0 32 13 60.5t34.5 50t49.5 34t59 12.5q34 0 63.5 -12.5t52 -34t35.5 -50t13 -60.5q0 -33 -13 -60.5t-35.5 -48.5t-52 -33t-63.5 -12 q-31 0 -59 12t-49.5 33t-34.5 48.5t-13 60.5zM524 570h409l-138 409q-15 39 -33 91.5t-35 114.5q-15 -62 -32.5 -115.5t-32.5 -92.5zM802 1708q0 32 13 60.5t34.5 50t50.5 34t62 12.5t62 -12.5t50.5 -34t34.5 -50t13 -60.5q0 -33 -13 -60.5t-34.5 -48.5t-50.5 -33t-62 -12 t-62 12t-50.5 33t-34.5 48.5t-13 60.5z" />
<glyph unicode="&#xc5;" horiz-adv-x="1456" d="M-27 0l578 1492h354l578 -1492h-269q-45 0 -72.5 21t-41.5 54l-88 260h-568l-88 -260q-11 -29 -40 -52t-72 -23h-271zM498 1755q0 47 19 85.5t50.5 65.5t72 42t86.5 15q47 0 89 -15t74 -42t51 -65.5t19 -85.5q0 -45 -19 -82.5t-51 -64t-74 -41t-89 -14.5q-45 0 -86 14.5 t-72.5 41t-50.5 64t-19 82.5zM524 570h409l-138 409q-15 39 -33 91.5t-35 114.5q-15 -62 -32.5 -115.5t-32.5 -92.5zM648 1755q0 -36 20 -59t62 -23q37 0 58 23t21 59q0 39 -21.5 61.5t-57.5 22.5q-42 0 -62 -22.5t-20 -61.5z" />
<glyph unicode="&#xc6;" horiz-adv-x="1914" d="M-34 0l733 1492h1147v-266h-660l42 -348h475v-256h-443l43 -356h543v-266h-839l-41 335h-495l-114 -260q-16 -33 -49.5 -54t-79.5 -21h-262zM574 570h364l-81 669q-19 -61 -40 -113t-42 -97z" />
<glyph unicode="&#xc7;" horiz-adv-x="1342" d="M61 746q0 167 54.5 307t153 241.5t235.5 157.5t302 56q84 0 158 -14.5t138.5 -41t119 -63t96.5 -79.5l-117 -157q-11 -14 -26.5 -26t-42.5 -12q-18 0 -35 8.5t-35.5 20t-40.5 25.5t-52 25.5t-70.5 20t-94.5 8.5q-86 0 -157.5 -32t-123 -93t-79.5 -149.5t-28 -202.5 q0 -115 31 -203.5t85 -149.5t125.5 -93t153.5 -32q47 0 86 5t73 15.5t63.5 28.5t60.5 45q12 10 26.5 17t29.5 7q12 0 24.5 -4.5t23.5 -15.5l137 -145q-79 -103 -194 -162t-268 -72l-10 -38q49 -12 81.5 -28.5t51.5 -36.5t27 -43.5t8 -49.5q0 -36 -20 -64.5t-55.5 -49 t-86.5 -31.5t-112 -11q-42 0 -77.5 4.5t-74.5 12.5l29 95q6 28 35 28q15 0 29.5 -3.5t35.5 -3.5q27 0 38 9t11 20q0 23 -31 33t-106 22l47 137q-148 15 -265.5 78.5t-199 164t-124.5 231.5t-43 283z" />
<glyph unicode="&#xc8;" horiz-adv-x="1173" d="M144 0v1492h961v-266h-612v-348h469v-256h-469v-356h612v-266h-961zM158 1912h329q24 0 41.5 -1.5t31 -6t25.5 -14t25 -25.5l214 -277h-231q-18 0 -31.5 0.5t-25.5 3.5t-22.5 9t-22.5 17z" />
<glyph unicode="&#xc9;" horiz-adv-x="1173" d="M144 0v1492h961v-266h-612v-348h469v-256h-469v-356h612v-266h-961zM445 1588l194 277q12 16 24 26t25.5 14.5t31.5 5.5t42 1h350l-331 -292q-12 -11 -23 -17.5t-23.5 -9.5t-26.5 -4t-31 -1h-232z" />
<glyph unicode="&#xca;" horiz-adv-x="1173" d="M144 0v1492h961v-266h-612v-348h469v-256h-469v-356h612v-266h-961zM252 1588l250 285h289l250 -285h-229q-18 0 -45 7t-56 40l-51 80q-5 7 -9.5 13.5t-8.5 13.5q-4 -7 -9 -13.5t-10 -13.5l-51 -80q-29 -34 -55.5 -40.5t-44.5 -6.5h-220z" />
<glyph unicode="&#xcb;" horiz-adv-x="1173" d="M144 0v1492h961v-266h-612v-348h469v-256h-469v-356h612v-266h-961zM246 1708q0 32 13 60.5t34.5 50t49.5 34t59 12.5q34 0 63.5 -12.5t52 -34t35.5 -50t13 -60.5q0 -33 -13 -60.5t-35.5 -48.5t-52 -33t-63.5 -12q-31 0 -59 12t-49.5 33t-34.5 48.5t-13 60.5zM717 1708 q0 32 13 60.5t34.5 50t50.5 34t62 12.5t62 -12.5t50.5 -34t34.5 -50t13 -60.5q0 -33 -13 -60.5t-34.5 -48.5t-50.5 -33t-62 -12t-62 12t-50.5 33t-34.5 48.5t-13 60.5z" />
<glyph unicode="&#xcc;" horiz-adv-x="636" d="M-162 1912h329q24 0 41.5 -1.5t31 -6t25.5 -14t25 -25.5l214 -277h-231q-18 0 -31.5 0.5t-25.5 3.5t-22.5 9t-22.5 17zM144 0v1492h349v-1492h-349z" />
<glyph unicode="&#xcd;" horiz-adv-x="636" d="M125 1588l194 277q12 16 24 26t25.5 14.5t31.5 5.5t42 1h350l-331 -292q-12 -11 -23 -17.5t-23.5 -9.5t-26.5 -4t-31 -1h-232zM144 0v1492h349v-1492h-349z" />
<glyph unicode="&#xce;" horiz-adv-x="636" d="M-67 1588l250 285h289l250 -285h-229q-18 0 -45 7t-56 40l-51 80q-5 7 -9.5 13.5t-8.5 13.5q-4 -7 -9 -13.5t-10 -13.5l-51 -80q-29 -34 -55.5 -40.5t-44.5 -6.5h-220zM144 0v1492h349v-1492h-349z" />
<glyph unicode="&#xcf;" horiz-adv-x="636" d="M-73 1708q0 32 13 60.5t34.5 50t49.5 34t59 12.5q34 0 63.5 -12.5t52 -34t35.5 -50t13 -60.5q0 -33 -13 -60.5t-35.5 -48.5t-52 -33t-63.5 -12q-31 0 -59 12t-49.5 33t-34.5 48.5t-13 60.5zM144 0v1492h349v-1492h-349zM398 1708q0 32 13 60.5t34.5 50t50.5 34t62 12.5 t62 -12.5t50.5 -34t34.5 -50t13 -60.5q0 -33 -13 -60.5t-34.5 -48.5t-50.5 -33t-62 -12t-62 12t-50.5 33t-34.5 48.5t-13 60.5z" />
<glyph unicode="&#xd0;" horiz-adv-x="1580" d="M-4 654v189h170v649h579q174 0 317 -56.5t244.5 -155.5t157.5 -236t56 -298q0 -162 -56 -298.5t-157.5 -236t-244 -155.5t-317.5 -56h-579v654h-170zM514 266h231q99 0 177 33.5t132 95.5t82.5 151t28.5 200t-28.5 200t-82.5 151t-131.5 95.5t-177.5 33.5h-231v-383h250 v-189h-250v-388z" />
<glyph unicode="&#xd1;" horiz-adv-x="1591" d="M144 0v1492h183q23 0 38 -2t27 -7.5t23.5 -16t25.5 -27.5l710 -896q-5 43 -7 83.5t-2 75.5v790h305v-1492h-180q-40 0 -67.5 13t-53.5 44l-704 890q4 -40 6 -77t2 -70v-800h-306zM411 1578q0 56 15 108.5t45.5 93.5t74 65.5t100.5 24.5t98 -15.5t72 -34.5t56.5 -34.5 t52.5 -15.5q23 0 38 9t24.5 23t14 29.5t4.5 30.5h193q0 -56 -15.5 -108.5t-45 -93t-73.5 -64.5t-102 -24q-57 0 -97.5 15.5t-71.5 34t-56.5 34t-52.5 15.5q-23 0 -38 -9t-24.5 -23t-13.5 -30.5t-4 -30.5h-194z" />
<glyph unicode="&#xd2;" horiz-adv-x="1668" d="M58 746q0 162 56 301.5t158 242t245 160.5t318 58q174 0 316.5 -58.5t244 -161t157.5 -242t56 -300.5q0 -162 -56 -301t-157.5 -242t-244 -161t-316.5 -58t-317.5 58t-245.5 161t-158 242.5t-56 300.5zM353 1912h329q24 0 41.5 -1.5t31 -6t25.5 -14t25 -25.5l214 -277 h-231q-18 0 -31.5 0.5t-25.5 3.5t-22.5 9t-22.5 17zM413 746q0 -112 28.5 -200t82.5 -149.5t132 -94t179 -32.5q99 0 177 32.5t131.5 94t82 149.5t28.5 200q0 111 -28.5 199.5t-82 150t-131.5 94.5t-177 33q-100 0 -178.5 -33t-132.5 -94.5t-82.5 -150t-28.5 -199.5z" />
<glyph unicode="&#xd3;" horiz-adv-x="1668" d="M58 746q0 162 56 301.5t158 242t245 160.5t318 58q174 0 316.5 -58.5t244 -161t157.5 -242t56 -300.5q0 -162 -56 -301t-157.5 -242t-244 -161t-316.5 -58t-317.5 58t-245.5 161t-158 242.5t-56 300.5zM413 746q0 -112 28.5 -200t82.5 -149.5t132 -94t179 -32.5 q99 0 177 32.5t131.5 94t82 149.5t28.5 200q0 111 -28.5 199.5t-82 150t-131.5 94.5t-177 33q-100 0 -178.5 -33t-132.5 -94.5t-82.5 -150t-28.5 -199.5zM640 1588l194 277q12 16 24 26t25.5 14.5t31.5 5.5t42 1h350l-331 -292q-12 -11 -23 -17.5t-23.5 -9.5t-26.5 -4 t-31 -1h-232z" />
<glyph unicode="&#xd4;" horiz-adv-x="1668" d="M58 746q0 162 56 301.5t158 242t245 160.5t318 58q174 0 316.5 -58.5t244 -161t157.5 -242t56 -300.5q0 -162 -56 -301t-157.5 -242t-244 -161t-316.5 -58t-317.5 58t-245.5 161t-158 242.5t-56 300.5zM413 746q0 -112 28.5 -200t82.5 -149.5t132 -94t179 -32.5 q99 0 177 32.5t131.5 94t82 149.5t28.5 200q0 111 -28.5 199.5t-82 150t-131.5 94.5t-177 33q-100 0 -178.5 -33t-132.5 -94.5t-82.5 -150t-28.5 -199.5zM447 1588l250 285h289l250 -285h-229q-18 0 -45 7t-56 40l-51 80q-5 7 -9.5 13.5t-8.5 13.5q-4 -7 -9 -13.5t-10 -13.5 l-51 -80q-29 -34 -55.5 -40.5t-44.5 -6.5h-220z" />
<glyph unicode="&#xd5;" horiz-adv-x="1668" d="M58 746q0 162 56 301.5t158 242t245 160.5t318 58q174 0 316.5 -58.5t244 -161t157.5 -242t56 -300.5q0 -162 -56 -301t-157.5 -242t-244 -161t-316.5 -58t-317.5 58t-245.5 161t-158 242.5t-56 300.5zM413 746q0 -112 28.5 -200t82.5 -149.5t132 -94t179 -32.5 q99 0 177 32.5t131.5 94t82 149.5t28.5 200q0 111 -28.5 199.5t-82 150t-131.5 94.5t-177 33q-100 0 -178.5 -33t-132.5 -94.5t-82.5 -150t-28.5 -199.5zM450 1578q0 56 15 108.5t45.5 93.5t74 65.5t100.5 24.5t98 -15.5t72 -34.5t56.5 -34.5t52.5 -15.5q23 0 38 9t24.5 23 t14 29.5t4.5 30.5h193q0 -56 -15.5 -108.5t-45 -93t-73.5 -64.5t-102 -24q-57 0 -97.5 15.5t-71.5 34t-56.5 34t-52.5 15.5q-23 0 -38 -9t-24.5 -23t-13.5 -30.5t-4 -30.5h-194z" />
<glyph unicode="&#xd6;" horiz-adv-x="1668" d="M58 746q0 162 56 301.5t158 242t245 160.5t318 58q174 0 316.5 -58.5t244 -161t157.5 -242t56 -300.5q0 -162 -56 -301t-157.5 -242t-244 -161t-316.5 -58t-317.5 58t-245.5 161t-158 242.5t-56 300.5zM413 746q0 -112 28.5 -200t82.5 -149.5t132 -94t179 -32.5 q99 0 177 32.5t131.5 94t82 149.5t28.5 200q0 111 -28.5 199.5t-82 150t-131.5 94.5t-177 33q-100 0 -178.5 -33t-132.5 -94.5t-82.5 -150t-28.5 -199.5zM441 1708q0 32 13 60.5t34.5 50t49.5 34t59 12.5q34 0 63.5 -12.5t52 -34t35.5 -50t13 -60.5q0 -33 -13 -60.5 t-35.5 -48.5t-52 -33t-63.5 -12q-31 0 -59 12t-49.5 33t-34.5 48.5t-13 60.5zM912 1708q0 32 13 60.5t34.5 50t50.5 34t62 12.5t62 -12.5t50.5 -34t34.5 -50t13 -60.5q0 -33 -13 -60.5t-34.5 -48.5t-50.5 -33t-62 -12t-62 12t-50.5 33t-34.5 48.5t-13 60.5z" />
<glyph unicode="&#xd7;" d="M92 349l340 340l-319 319l166 160l316 -316l314 314l168 -160l-317 -318l338 -337l-168 -161l-334 334l-336 -336z" />
<glyph unicode="&#xd8;" horiz-adv-x="1668" d="M58 746q0 162 56 301.5t158 242t245 160.5t318 58q109 0 203.5 -22.5t175.5 -64.5l42 58q16 23 30 38t29.5 24.5t35 14t47.5 4.5h176l-189 -262q108 -103 166 -244.5t58 -307.5q0 -162 -56 -301t-157.5 -242t-244 -161t-316.5 -58q-96 0 -182.5 17.5t-163.5 52.5l-58 -82 q-37 -48 -88 -68t-100 -20h-135l203 283q-121 104 -187 252.5t-66 326.5zM413 746q0 -197 86 -318l540 750q-88 45 -204 45q-100 0 -178.5 -33t-132.5 -94.5t-82.5 -150t-28.5 -199.5zM667 299q37 -14 78.5 -21.5t89.5 -7.5q99 0 177 32.5t131.5 94t82 150t28.5 199.5 q0 167 -63 282z" />
<glyph unicode="&#xd9;" horiz-adv-x="1533" d="M126 608v884h346v-883q0 -79 20 -140.5t58 -105.5t92.5 -67t124.5 -23t124.5 23t92.5 66.5t58 105t20 140.5v884h346v-884q0 -137 -44.5 -251.5t-127.5 -197.5t-202 -129t-267 -46q-150 0 -268.5 46t-201.5 129t-127 197.5t-44 251.5zM283 1912h329q24 0 41.5 -1.5t31 -6 t25.5 -14t25 -25.5l214 -277h-231q-18 0 -31.5 0.5t-25.5 3.5t-22.5 9t-22.5 17z" />
<glyph unicode="&#xda;" horiz-adv-x="1533" d="M126 608v884h346v-883q0 -79 20 -140.5t58 -105.5t92.5 -67t124.5 -23t124.5 23t92.5 66.5t58 105t20 140.5v884h346v-884q0 -137 -44.5 -251.5t-127.5 -197.5t-202 -129t-267 -46q-150 0 -268.5 46t-201.5 129t-127 197.5t-44 251.5zM570 1588l194 277q12 16 24 26 t25.5 14.5t31.5 5.5t42 1h350l-331 -292q-12 -11 -23 -17.5t-23.5 -9.5t-26.5 -4t-31 -1h-232z" />
<glyph unicode="&#xdb;" horiz-adv-x="1533" d="M126 608v884h346v-883q0 -79 20 -140.5t58 -105.5t92.5 -67t124.5 -23t124.5 23t92.5 66.5t58 105t20 140.5v884h346v-884q0 -137 -44.5 -251.5t-127.5 -197.5t-202 -129t-267 -46q-150 0 -268.5 46t-201.5 129t-127 197.5t-44 251.5zM377 1588l250 285h289l250 -285 h-229q-18 0 -45 7t-56 40l-51 80q-5 7 -9.5 13.5t-8.5 13.5q-4 -7 -9 -13.5t-10 -13.5l-51 -80q-29 -34 -55.5 -40.5t-44.5 -6.5h-220z" />
<glyph unicode="&#xdc;" horiz-adv-x="1533" d="M126 608v884h346v-883q0 -79 20 -140.5t58 -105.5t92.5 -67t124.5 -23t124.5 23t92.5 66.5t58 105t20 140.5v884h346v-884q0 -137 -44.5 -251.5t-127.5 -197.5t-202 -129t-267 -46q-150 0 -268.5 46t-201.5 129t-127 197.5t-44 251.5zM371 1708q0 32 13 60.5t34.5 50 t49.5 34t59 12.5q34 0 63.5 -12.5t52 -34t35.5 -50t13 -60.5q0 -33 -13 -60.5t-35.5 -48.5t-52 -33t-63.5 -12q-31 0 -59 12t-49.5 33t-34.5 48.5t-13 60.5zM842 1708q0 32 13 60.5t34.5 50t50.5 34t62 12.5t62 -12.5t50.5 -34t34.5 -50t13 -60.5q0 -33 -13 -60.5 t-34.5 -48.5t-50.5 -33t-62 -12t-62 12t-50.5 33t-34.5 48.5t-13 60.5z" />
<glyph unicode="&#xdd;" horiz-adv-x="1372" d="M-28 1492h306q45 0 71 -21t43 -54l211 -434q27 -51 48.5 -95.5t37.5 -87.5q15 44 35 88.5t47 94.5l209 434q7 13 17.5 26.5t24 24.5t31.5 17.5t40 6.5h307l-541 -925v-567h-346v567zM492 1588l194 277q12 16 24 26t25.5 14.5t31.5 5.5t42 1h350l-331 -292 q-12 -11 -23 -17.5t-23.5 -9.5t-26.5 -4t-31 -1h-232z" />
<glyph unicode="&#xde;" horiz-adv-x="1293" d="M144 0v1492h346v-241h181q158 0 271 -37t186 -102.5t108 -155t35 -192.5q0 -112 -36 -205t-109.5 -159.5t-187 -104t-267.5 -37.5h-181v-258h-346zM490 519h181q135 0 194.5 64.5t59.5 180.5q0 51 -15.5 93t-47 72t-79 46.5t-112.5 16.5h-181v-473z" />
<glyph unicode="&#xdf;" horiz-adv-x="1275" d="M106 0v1001q0 110 38.5 204.5t112.5 165t180 110.5t241 40q133 0 225 -38t149 -94.5t82 -120t25 -115.5q0 -57 -18.5 -98t-46 -71t-59 -52t-59.5 -41.5t-46.5 -39.5t-18.5 -46q0 -29 24 -52t59.5 -47.5t77.5 -53t77.5 -69t59.5 -96.5t24 -134q0 -93 -35.5 -162 t-93.5 -115t-135 -69t-160 -23q-45 0 -92 10t-91.5 27.5t-84 41.5t-70.5 52l74 116q12 20 31 32t49 12q28 0 50 -12t45 -26.5t51 -26.5t67 -12q40 0 69 29t29 77q0 41 -26.5 69.5t-66.5 53.5t-86 50t-86 60t-66.5 84t-26.5 121q0 61 19.5 105.5t50.5 76.5t66 58t65.5 50.5 t50.5 52.5t20 66q0 69 -44.5 108t-141.5 39q-65 0 -110.5 -21t-74 -60t-42 -96.5t-13.5 -129.5v-991h-318z" />
<glyph unicode="&#xe0;" horiz-adv-x="1059" d="M35 276q0 57 28.5 116.5t99 108t190.5 81t302 36.5v46q0 93 -38 134.5t-109 41.5q-56 0 -92 -12.5t-64 -28t-55 -27.5t-64 -12q-33 0 -55 16.5t-37 38.5l-57 99q96 85 213.5 126.5t251.5 41.5q96 0 173.5 -31t131 -87t82.5 -132.5t29 -167.5v-664h-146q-45 0 -68 12.5 t-38 50.5l-23 59q-40 -34 -76.5 -59.5t-76 -43.5t-84 -26.5t-99.5 -8.5q-73 0 -132 19t-100.5 55.5t-64 91.5t-22.5 126zM147 1508h297q48 0 71.5 -15.5t40.5 -45.5l140 -251h-181q-36 0 -57 9.5t-45 33.5zM338 292q0 -54 29.5 -76t87.5 -22q61 0 107 21.5t93 69.5v147 q-95 -4 -156.5 -16.5t-97 -30.5t-49.5 -42t-14 -51z" />
<glyph unicode="&#xe1;" horiz-adv-x="1059" d="M35 276q0 57 28.5 116.5t99 108t190.5 81t302 36.5v46q0 93 -38 134.5t-109 41.5q-56 0 -92 -12.5t-64 -28t-55 -27.5t-64 -12q-33 0 -55 16.5t-37 38.5l-57 99q96 85 213.5 126.5t251.5 41.5q96 0 173.5 -31t131 -87t82.5 -132.5t29 -167.5v-664h-146q-45 0 -68 12.5 t-38 50.5l-23 59q-40 -34 -76.5 -59.5t-76 -43.5t-84 -26.5t-99.5 -8.5q-73 0 -132 19t-100.5 55.5t-64 91.5t-22.5 126zM338 292q0 -54 29.5 -76t87.5 -22q61 0 107 21.5t93 69.5v147q-95 -4 -156.5 -16.5t-97 -30.5t-49.5 -42t-14 -51zM370 1196l139 251q17 30 41 45.5 t72 15.5h307l-266 -269q-24 -24 -45.5 -33.5t-57.5 -9.5h-190z" />
<glyph unicode="&#xe2;" horiz-adv-x="1059" d="M35 276q0 57 28.5 116.5t99 108t190.5 81t302 36.5v46q0 93 -38 134.5t-109 41.5q-56 0 -92 -12.5t-64 -28t-55 -27.5t-64 -12q-33 0 -55 16.5t-37 38.5l-57 99q96 85 213.5 126.5t251.5 41.5q96 0 173.5 -31t131 -87t82.5 -132.5t29 -167.5v-664h-146q-45 0 -68 12.5 t-38 50.5l-23 59q-40 -34 -76.5 -59.5t-76 -43.5t-84 -26.5t-99.5 -8.5q-73 0 -132 19t-100.5 55.5t-64 91.5t-22.5 126zM134 1196l240 296h299l240 -296h-211q-18 0 -35.5 5.5t-35.5 23.5l-77 85q-6 6 -12.5 13t-12.5 15q-6 -8 -13 -15l-13 -13l-79 -85 q-15 -14 -33.5 -21.5t-36.5 -7.5h-220zM338 292q0 -54 29.5 -76t87.5 -22q61 0 107 21.5t93 69.5v147q-95 -4 -156.5 -16.5t-97 -30.5t-49.5 -42t-14 -51z" />
<glyph unicode="&#xe3;" horiz-adv-x="1059" d="M35 276q0 57 28.5 116.5t99 108t190.5 81t302 36.5v46q0 93 -38 134.5t-109 41.5q-56 0 -92 -12.5t-64 -28t-55 -27.5t-64 -12q-33 0 -55 16.5t-37 38.5l-57 99q96 85 213.5 126.5t251.5 41.5q96 0 173.5 -31t131 -87t82.5 -132.5t29 -167.5v-664h-146q-45 0 -68 12.5 t-38 50.5l-23 59q-40 -34 -76.5 -59.5t-76 -43.5t-84 -26.5t-99.5 -8.5q-73 0 -132 19t-100.5 55.5t-64 91.5t-22.5 126zM171 1214q0 65 18.5 116.5t50.5 88.5t75 57t92 20q38 0 71 -11.5t61 -26t51 -26.5t40 -12q25 0 40 13t15 55h193q0 -65 -18 -116.5t-49.5 -88 t-74.5 -56t-94 -19.5q-38 0 -70.5 12t-60.5 26.5t-51 26t-41 11.5q-25 0 -39 -14t-14 -56h-195zM338 292q0 -54 29.5 -76t87.5 -22q61 0 107 21.5t93 69.5v147q-95 -4 -156.5 -16.5t-97 -30.5t-49.5 -42t-14 -51z" />
<glyph unicode="&#xe4;" horiz-adv-x="1059" d="M35 276q0 57 28.5 116.5t99 108t190.5 81t302 36.5v46q0 93 -38 134.5t-109 41.5q-56 0 -92 -12.5t-64 -28t-55 -27.5t-64 -12q-33 0 -55 16.5t-37 38.5l-57 99q96 85 213.5 126.5t251.5 41.5q96 0 173.5 -31t131 -87t82.5 -132.5t29 -167.5v-664h-146q-45 0 -68 12.5 t-38 50.5l-23 59q-40 -34 -76.5 -59.5t-76 -43.5t-84 -26.5t-99.5 -8.5q-73 0 -132 19t-100.5 55.5t-64 91.5t-22.5 126zM141 1326q0 34 13 63.5t35 51.5t51.5 35t61.5 13q35 0 65.5 -13t53.5 -35t36 -51.5t13 -63.5q0 -33 -13 -61.5t-36 -49.5t-53.5 -33.5t-65.5 -12.5 q-33 0 -62 12.5t-51 33.5t-35 49.5t-13 61.5zM338 292q0 -54 29.5 -76t87.5 -22q61 0 107 21.5t93 69.5v147q-95 -4 -156.5 -16.5t-97 -30.5t-49.5 -42t-14 -51zM577 1326q0 34 12.5 63.5t35.5 51.5t52.5 35t63.5 13q35 0 65 -13t52.5 -35t35.5 -51.5t13 -63.5 q0 -33 -13 -61.5t-35.5 -49.5t-52.5 -33.5t-65 -12.5q-34 0 -63.5 12.5t-52.5 33.5t-35.5 49.5t-12.5 61.5z" />
<glyph unicode="&#xe5;" horiz-adv-x="1059" d="M35 276q0 57 28.5 116.5t99 108t190.5 81t302 36.5v46q0 93 -38 134.5t-109 41.5q-56 0 -92 -12.5t-64 -28t-55 -27.5t-64 -12q-33 0 -55 16.5t-37 38.5l-57 99q96 85 213.5 126.5t251.5 41.5q96 0 173.5 -31t131 -87t82.5 -132.5t29 -167.5v-664h-146q-45 0 -68 12.5 t-38 50.5l-23 59q-40 -34 -76.5 -59.5t-76 -43.5t-84 -26.5t-99.5 -8.5q-73 0 -132 19t-100.5 55.5t-64 91.5t-22.5 126zM276 1366q0 51 20.5 92.5t54 71.5t78.5 45.5t95 15.5t96 -15.5t81.5 -45.5t56 -71.5t20.5 -92.5q0 -50 -20.5 -90.5t-56 -69t-81.5 -44.5t-96 -16 q-49 0 -94.5 16t-79 44.5t-54 69t-20.5 90.5zM338 292q0 -54 29.5 -76t87.5 -22q61 0 107 21.5t93 69.5v147q-95 -4 -156.5 -16.5t-97 -30.5t-49.5 -42t-14 -51zM446 1366q0 -36 20 -59t62 -23q37 0 58.5 23t21.5 59q0 39 -21.5 61.5t-58.5 22.5q-42 0 -62 -22.5t-20 -61.5z " />
<glyph unicode="&#xe6;" horiz-adv-x="1667" d="M37 288q0 57 28.5 117.5t99.5 111t190.5 85t301.5 38.5v24q0 93 -38 139t-109 46q-56 0 -92 -14t-64 -31t-55 -30.5t-63 -13.5q-33 0 -55.5 16.5t-37.5 38.5l-57 99q96 85 200.5 126.5t229.5 41.5q117 0 193 -40t120 -110q59 68 145.5 107t199.5 39q94 0 175 -35.5 t139.5 -102t92 -160t33.5 -209.5q0 -36 -3 -58.5t-11 -35.5t-21 -18t-35 -5h-583q18 -122 79.5 -177.5t155.5 -55.5q69 0 109.5 12.5t66.5 26.5t45 26.5t45 12.5q44 0 64 -28l86 -105q-49 -56 -105 -91.5t-114.5 -55.5t-116 -27.5t-111.5 -7.5q-52 0 -103 10.5t-98.5 33.5 t-88.5 59t-75 85q-33 -49 -78.5 -85t-100 -59t-116 -33.5t-126.5 -10.5q-164 0 -253 79.5t-89 224.5zM340 303q0 -55 29.5 -82t87.5 -27q43 0 79.5 12.5t63.5 41t42 75.5t15 114v17q-95 -5 -156.5 -19t-97 -34.5t-49.5 -45.5t-14 -52zM958 638h373q0 38 -8.5 77.5t-28.5 71 t-53.5 52t-81.5 20.5q-90 0 -138.5 -57t-62.5 -164z" />
<glyph unicode="&#xe7;" horiz-adv-x="998" d="M52 534q0 115 34.5 214.5t101.5 172.5t166 115t229 42q125 0 219 -40t170 -116l-84 -112q-14 -17 -27.5 -27.5t-38.5 -10.5q-24 0 -42.5 11.5t-42 25t-55.5 25t-79 11.5q-58 0 -100.5 -21.5t-70.5 -61.5t-41 -98t-13 -130q0 -153 59 -235t162 -82q55 0 87.5 14t55 31 t41.5 31t47 14q38 0 58 -27l92 -114q-39 -45 -81.5 -76.5t-87 -52t-90 -32t-90.5 -16.5l-10 -40q49 -12 81 -28.5t51 -36.5t27 -43.5t8 -49.5q0 -36 -19.5 -64.5t-55.5 -49t-87 -31.5t-112 -11q-42 0 -77.5 4.5t-74.5 12.5l29 95q6 28 35 28q15 0 29.5 -3.5t36.5 -3.5 q27 0 38 9t11 20q0 23 -31.5 33t-106.5 22l49 140q-83 15 -156 58t-127 111.5t-85.5 162.5t-31.5 210z" />
<glyph unicode="&#xe8;" horiz-adv-x="1103" d="M51 554q0 106 36.5 201.5t104.5 167t165 113.5t218 42q105 0 193 -32.5t151 -95t98.5 -153t35.5 -205.5q0 -36 -3 -58.5t-11.5 -36t-22.5 -18.5t-35 -5h-612q15 -133 80.5 -193t168.5 -60q55 0 95.5 13.5t71.5 30t57 29.5t55 13q38 0 57 -27l93 -114q-49 -56 -106 -91.5 t-117 -55.5t-120 -27.5t-114 -7.5q-112 0 -209.5 36t-171 108t-116 178.5t-42.5 247.5zM207 1508h297q48 0 71.5 -15.5t40.5 -45.5l140 -251h-181q-36 0 -57 9.5t-45 33.5zM373 658h395q0 38 -9.5 74t-31.5 64t-58 45.5t-87 17.5q-90 0 -141.5 -51.5t-67.5 -149.5z" />
<glyph unicode="&#xe9;" horiz-adv-x="1103" d="M51 554q0 106 36.5 201.5t104.5 167t165 113.5t218 42q105 0 193 -32.5t151 -95t98.5 -153t35.5 -205.5q0 -36 -3 -58.5t-11.5 -36t-22.5 -18.5t-35 -5h-612q15 -133 80.5 -193t168.5 -60q55 0 95.5 13.5t71.5 30t57 29.5t55 13q38 0 57 -27l93 -114q-49 -56 -106 -91.5 t-117 -55.5t-120 -27.5t-114 -7.5q-112 0 -209.5 36t-171 108t-116 178.5t-42.5 247.5zM373 658h395q0 38 -9.5 74t-31.5 64t-58 45.5t-87 17.5q-90 0 -141.5 -51.5t-67.5 -149.5zM430 1196l139 251q17 30 41 45.5t72 15.5h307l-266 -269q-24 -24 -45.5 -33.5t-57.5 -9.5 h-190z" />
<glyph unicode="&#xea;" horiz-adv-x="1103" d="M51 554q0 106 36.5 201.5t104.5 167t165 113.5t218 42q105 0 193 -32.5t151 -95t98.5 -153t35.5 -205.5q0 -36 -3 -58.5t-11.5 -36t-22.5 -18.5t-35 -5h-612q15 -133 80.5 -193t168.5 -60q55 0 95.5 13.5t71.5 30t57 29.5t55 13q38 0 57 -27l93 -114q-49 -56 -106 -91.5 t-117 -55.5t-120 -27.5t-114 -7.5q-112 0 -209.5 36t-171 108t-116 178.5t-42.5 247.5zM194 1196l240 296h299l240 -296h-211q-18 0 -35.5 5.5t-35.5 23.5l-77 85q-6 6 -12.5 13t-12.5 15q-6 -8 -13 -15l-13 -13l-79 -85q-15 -14 -33.5 -21.5t-36.5 -7.5h-220zM373 658h395 q0 38 -9.5 74t-31.5 64t-58 45.5t-87 17.5q-90 0 -141.5 -51.5t-67.5 -149.5z" />
<glyph unicode="&#xeb;" horiz-adv-x="1103" d="M51 554q0 106 36.5 201.5t104.5 167t165 113.5t218 42q105 0 193 -32.5t151 -95t98.5 -153t35.5 -205.5q0 -36 -3 -58.5t-11.5 -36t-22.5 -18.5t-35 -5h-612q15 -133 80.5 -193t168.5 -60q55 0 95.5 13.5t71.5 30t57 29.5t55 13q38 0 57 -27l93 -114q-49 -56 -106 -91.5 t-117 -55.5t-120 -27.5t-114 -7.5q-112 0 -209.5 36t-171 108t-116 178.5t-42.5 247.5zM201 1326q0 34 13 63.5t35 51.5t51.5 35t61.5 13q35 0 65.5 -13t53.5 -35t36 -51.5t13 -63.5q0 -33 -13 -61.5t-36 -49.5t-53.5 -33.5t-65.5 -12.5q-33 0 -62 12.5t-51 33.5t-35 49.5 t-13 61.5zM373 658h395q0 38 -9.5 74t-31.5 64t-58 45.5t-87 17.5q-90 0 -141.5 -51.5t-67.5 -149.5zM637 1326q0 34 12.5 63.5t35.5 51.5t52.5 35t63.5 13q35 0 65 -13t52.5 -35t35.5 -51.5t13 -63.5q0 -33 -13 -61.5t-35.5 -49.5t-52.5 -33.5t-65 -12.5q-34 0 -63.5 12.5 t-52.5 33.5t-35.5 49.5t-12.5 61.5z" />
<glyph unicode="&#xec;" horiz-adv-x="546" d="M-94 1508h297q48 0 71.5 -15.5t40.5 -45.5l140 -251h-181q-36 0 -57 9.5t-45 33.5zM115 0v1062h317v-1062h-317z" />
<glyph unicode="&#xed;" horiz-adv-x="547" d="M116 0v1062h317v-1062h-317zM130 1196l139 251q17 30 41 45.5t72 15.5h307l-266 -269q-24 -24 -45.5 -33.5t-57.5 -9.5h-190z" />
<glyph unicode="&#xee;" horiz-adv-x="546" d="M-107 1196l240 296h299l240 -296h-211q-18 0 -35.5 5.5t-35.5 23.5l-77 85q-6 6 -12.5 13t-12.5 15q-6 -8 -13 -15l-13 -13l-79 -85q-15 -14 -33.5 -21.5t-36.5 -7.5h-220zM115 0v1062h317v-1062h-317z" />
<glyph unicode="&#xef;" horiz-adv-x="546" d="M-70 1326q0 34 13.5 63.5t35.5 51.5t51 35t62 13q35 0 65 -13t53 -35t36.5 -51.5t13.5 -63.5q0 -33 -13.5 -61.5t-36.5 -49.5t-53 -33.5t-65 -12.5q-33 0 -62 12.5t-51 33.5t-35.5 49.5t-13.5 61.5zM115 0v1062h317v-1062h-317zM305 1326q0 34 13 63.5t35.5 51.5t52 35 t63.5 13q35 0 65 -13t52.5 -35t35.5 -51.5t13 -63.5q0 -33 -13 -61.5t-35.5 -49.5t-52.5 -33.5t-65 -12.5q-34 0 -63.5 12.5t-52 33.5t-35.5 49.5t-13 61.5z" />
<glyph unicode="&#xf0;" horiz-adv-x="1176" d="M48 492q0 92 34.5 176.5t97.5 149t151 102t194 37.5q92 0 164.5 -28t130.5 -80q-20 84 -64 148.5t-122 115.5l-217 -127l-60 98q-18 30 -10 56t39 43l47 23q-20 6 -40.5 13t-43.5 13q-20 6 -37 18t-26.5 29t-9.5 41.5t12 54.5l37 106q109 -17 208 -50t186 -83l187 109 l64 -100q17 -27 9.5 -52.5t-34.5 -39.5l-67 -34q112 -105 175.5 -255.5t63.5 -349.5q0 -154 -36.5 -273.5t-106.5 -201.5t-172.5 -124.5t-233.5 -42.5q-112 0 -207 34t-164.5 99.5t-109 160t-39.5 214.5zM364 489q0 -67 16 -117.5t45 -85t68 -52t84 -17.5q46 0 88.5 17 t75 57.5t53 109.5t23.5 173q-30 65 -84.5 107.5t-141.5 42.5q-55 0 -97.5 -18.5t-71.5 -50t-43.5 -74t-14.5 -92.5z" />
<glyph unicode="&#xf1;" horiz-adv-x="1167" d="M108 0v1062h196q59 0 78 -53l18 -62q31 29 64 53.5t70 41.5t80.5 26.5t95.5 9.5q87 0 154 -30t113 -84t69.5 -128t23.5 -161v-675h-317v675q0 78 -36 121.5t-106 43.5q-52 0 -97.5 -22t-88.5 -60v-758h-317zM244 1214q0 65 18.5 116.5t50.5 88.5t75 57t92 20 q38 0 71 -11.5t61 -26t51 -26.5t40 -12q25 0 40 13t15 55h193q0 -65 -18 -116.5t-49.5 -88t-74.5 -56t-94 -19.5q-38 0 -70.5 12t-60.5 26.5t-51 26t-41 11.5q-25 0 -39 -14t-14 -56h-195z" />
<glyph unicode="&#xf2;" horiz-adv-x="1189" d="M52 534q0 126 39.5 226.5t111.5 171t172 108.5t222 38q121 0 220 -38t170.5 -108.5t111 -171.5t39.5 -226q0 -127 -39.5 -229t-111 -173.5t-170.5 -109.5t-220 -38q-122 0 -222 38t-172 109.5t-111.5 173.5t-39.5 229zM220 1508h297q48 0 71.5 -15.5t40.5 -45.5l140 -251 h-181q-36 0 -57 9.5t-45 33.5zM380 531q0 -158 52 -235t165 -77q110 0 161.5 77.5t51.5 234.5q0 158 -51.5 235t-161.5 77q-113 0 -165 -77t-52 -235z" />
<glyph unicode="&#xf3;" horiz-adv-x="1189" d="M52 534q0 126 39.5 226.5t111.5 171t172 108.5t222 38q121 0 220 -38t170.5 -108.5t111 -171.5t39.5 -226q0 -127 -39.5 -229t-111 -173.5t-170.5 -109.5t-220 -38q-122 0 -222 38t-172 109.5t-111.5 173.5t-39.5 229zM380 531q0 -158 52 -235t165 -77q110 0 161.5 77.5 t51.5 234.5q0 158 -51.5 235t-161.5 77q-113 0 -165 -77t-52 -235zM443 1196l139 251q17 30 41 45.5t72 15.5h307l-266 -269q-24 -24 -45.5 -33.5t-57.5 -9.5h-190z" />
<glyph unicode="&#xf4;" horiz-adv-x="1189" d="M52 534q0 126 39.5 226.5t111.5 171t172 108.5t222 38q121 0 220 -38t170.5 -108.5t111 -171.5t39.5 -226q0 -127 -39.5 -229t-111 -173.5t-170.5 -109.5t-220 -38q-122 0 -222 38t-172 109.5t-111.5 173.5t-39.5 229zM207 1196l240 296h299l240 -296h-211 q-18 0 -35.5 5.5t-35.5 23.5l-77 85q-6 6 -12.5 13t-12.5 15q-6 -8 -13 -15l-13 -13l-79 -85q-15 -14 -33.5 -21.5t-36.5 -7.5h-220zM380 531q0 -158 52 -235t165 -77q110 0 161.5 77.5t51.5 234.5q0 158 -51.5 235t-161.5 77q-113 0 -165 -77t-52 -235z" />
<glyph unicode="&#xf5;" horiz-adv-x="1189" d="M52 534q0 126 39.5 226.5t111.5 171t172 108.5t222 38q121 0 220 -38t170.5 -108.5t111 -171.5t39.5 -226q0 -127 -39.5 -229t-111 -173.5t-170.5 -109.5t-220 -38q-122 0 -222 38t-172 109.5t-111.5 173.5t-39.5 229zM244 1214q0 65 18.5 116.5t50.5 88.5t75 57t92 20 q38 0 71 -11.5t61 -26t51 -26.5t40 -12q25 0 40 13t15 55h193q0 -65 -18 -116.5t-49.5 -88t-74.5 -56t-94 -19.5q-38 0 -70.5 12t-60.5 26.5t-51 26t-41 11.5q-25 0 -39 -14t-14 -56h-195zM380 531q0 -158 52 -235t165 -77q110 0 161.5 77.5t51.5 234.5q0 158 -51.5 235 t-161.5 77q-113 0 -165 -77t-52 -235z" />
<glyph unicode="&#xf6;" horiz-adv-x="1189" d="M52 534q0 126 39.5 226.5t111.5 171t172 108.5t222 38q121 0 220 -38t170.5 -108.5t111 -171.5t39.5 -226q0 -127 -39.5 -229t-111 -173.5t-170.5 -109.5t-220 -38q-122 0 -222 38t-172 109.5t-111.5 173.5t-39.5 229zM214 1326q0 34 13 63.5t35 51.5t51.5 35t61.5 13 q35 0 65.5 -13t53.5 -35t36 -51.5t13 -63.5q0 -33 -13 -61.5t-36 -49.5t-53.5 -33.5t-65.5 -12.5q-33 0 -62 12.5t-51 33.5t-35 49.5t-13 61.5zM380 531q0 -158 52 -235t165 -77q110 0 161.5 77.5t51.5 234.5q0 158 -51.5 235t-161.5 77q-113 0 -165 -77t-52 -235zM650 1326 q0 34 12.5 63.5t35.5 51.5t52.5 35t63.5 13q35 0 65 -13t52.5 -35t35.5 -51.5t13 -63.5q0 -33 -13 -61.5t-35.5 -49.5t-52.5 -33.5t-65 -12.5q-34 0 -63.5 12.5t-52.5 33.5t-35.5 49.5t-12.5 61.5z" />
<glyph unicode="&#xf7;" d="M87 574v228h1014v-228h-1014zM413 324q0 37 13.5 68.5t37.5 55t57 37.5t72 14q38 0 70.5 -14t57 -37.5t38.5 -55.5t14 -68q0 -37 -14 -69.5t-38.5 -56t-57 -37t-70.5 -13.5q-39 0 -72 13.5t-57 37t-37.5 56t-13.5 69.5zM413 1053q0 37 13.5 68.5t37.5 55t57 37.5t72 14 q38 0 70.5 -14t57 -37.5t38.5 -55t14 -68.5t-14 -69.5t-38.5 -56t-57 -36.5t-70.5 -13q-39 0 -72 13t-57 36.5t-37.5 56t-13.5 69.5z" />
<glyph unicode="&#xf8;" horiz-adv-x="1189" d="M26 -80l164 224q-67 71 -102.5 169.5t-35.5 220.5q0 126 39.5 226.5t111.5 171t172 108.5t222 38q136 0 245 -48l46 64q15 23 29 38t29.5 24t35 13.5t47.5 4.5h156l-187 -253q68 -71 104 -168.5t36 -218.5q0 -127 -39.5 -229t-111 -173.5t-170.5 -109.5t-220 -38 q-138 0 -250 50l-18 -25q-17 -26 -39.5 -42.5t-47.5 -27t-51 -15t-51 -4.5h-114zM359 531q0 -78 15 -138l323 441q-43 19 -100 19q-113 0 -175.5 -82t-62.5 -240zM492 230q44 -20 105 -20q110 0 171.5 82t61.5 239q0 80 -14 141z" />
<glyph unicode="&#xf9;" horiz-adv-x="1167" d="M97 388v674h318v-674q0 -79 35.5 -122t105.5 -43q52 0 97.5 22t88.5 60v757h318v-1062h-197q-59 0 -78 53l-18 62q-31 -30 -63.5 -54t-70 -41t-81 -26.5t-94.5 -9.5q-87 0 -154 30t-113.5 84.5t-70 128t-23.5 161.5zM207 1508h297q48 0 71.5 -15.5t40.5 -45.5l140 -251 h-181q-36 0 -57 9.5t-45 33.5z" />
<glyph unicode="&#xfa;" horiz-adv-x="1167" d="M97 388v674h318v-674q0 -79 35.5 -122t105.5 -43q52 0 97.5 22t88.5 60v757h318v-1062h-197q-59 0 -78 53l-18 62q-31 -30 -63.5 -54t-70 -41t-81 -26.5t-94.5 -9.5q-87 0 -154 30t-113.5 84.5t-70 128t-23.5 161.5zM430 1196l139 251q17 30 41 45.5t72 15.5h307 l-266 -269q-24 -24 -45.5 -33.5t-57.5 -9.5h-190z" />
<glyph unicode="&#xfb;" horiz-adv-x="1167" d="M97 388v674h318v-674q0 -79 35.5 -122t105.5 -43q52 0 97.5 22t88.5 60v757h318v-1062h-197q-59 0 -78 53l-18 62q-31 -30 -63.5 -54t-70 -41t-81 -26.5t-94.5 -9.5q-87 0 -154 30t-113.5 84.5t-70 128t-23.5 161.5zM194 1196l240 296h299l240 -296h-211q-18 0 -35.5 5.5 t-35.5 23.5l-77 85q-6 6 -12.5 13t-12.5 15q-6 -8 -13 -15l-13 -13l-79 -85q-15 -14 -33.5 -21.5t-36.5 -7.5h-220z" />
<glyph unicode="&#xfc;" horiz-adv-x="1167" d="M97 388v674h318v-674q0 -79 35.5 -122t105.5 -43q52 0 97.5 22t88.5 60v757h318v-1062h-197q-59 0 -78 53l-18 62q-31 -30 -63.5 -54t-70 -41t-81 -26.5t-94.5 -9.5q-87 0 -154 30t-113.5 84.5t-70 128t-23.5 161.5zM201 1326q0 34 13 63.5t35 51.5t51.5 35t61.5 13 q35 0 65.5 -13t53.5 -35t36 -51.5t13 -63.5q0 -33 -13 -61.5t-36 -49.5t-53.5 -33.5t-65.5 -12.5q-33 0 -62 12.5t-51 33.5t-35 49.5t-13 61.5zM637 1326q0 34 12.5 63.5t35.5 51.5t52.5 35t63.5 13q35 0 65 -13t52.5 -35t35.5 -51.5t13 -63.5q0 -33 -13 -61.5t-35.5 -49.5 t-52.5 -33.5t-65 -12.5q-34 0 -63.5 12.5t-52.5 33.5t-35.5 49.5t-12.5 61.5z" />
<glyph unicode="&#xfd;" horiz-adv-x="1101" d="M-8 1062h280q37 0 57 -16.5t29 -38.5l174 -458q25 -62 40 -128q11 33 22.5 65.5t23.5 64.5l158 456q9 24 33 39.5t51 15.5h256l-567 -1337q-14 -32 -34.5 -47t-65.5 -15h-238l205 430zM422 1196l139 251q17 30 41 45.5t72 15.5h307l-266 -269q-24 -24 -45.5 -33.5 t-57.5 -9.5h-190z" />
<glyph unicode="&#xfe;" horiz-adv-x="1177" d="M108 -337v1870h317v-583q59 57 134.5 92.5t176.5 35.5q83 0 154 -35.5t122 -105t80 -169.5t29 -228q0 -120 -33 -221.5t-93 -176t-143.5 -116.5t-184.5 -42q-42 0 -77 7.5t-64 21.5t-54 33.5t-47 42.5v-426h-317zM425 289q36 -39 78 -55.5t88 -16.5q44 0 81 17.5t64 56 t42.5 100t15.5 149.5q0 84 -12.5 141t-34.5 92.5t-52.5 51t-68.5 15.5q-70 0 -115 -26t-86 -75v-450z" />
<glyph unicode="&#xff;" horiz-adv-x="1101" d="M-8 1062h280q37 0 57 -16.5t29 -38.5l174 -458q25 -62 40 -128q11 33 22.5 65.5t23.5 64.5l158 456q9 24 33 39.5t51 15.5h256l-567 -1337q-14 -32 -34.5 -47t-65.5 -15h-238l205 430zM193 1326q0 34 13 63.5t35 51.5t51.5 35t61.5 13q35 0 65.5 -13t53.5 -35t36 -51.5 t13 -63.5q0 -33 -13 -61.5t-36 -49.5t-53.5 -33.5t-65.5 -12.5q-33 0 -62 12.5t-51 33.5t-35 49.5t-13 61.5zM629 1326q0 34 12.5 63.5t35.5 51.5t52.5 35t63.5 13q35 0 65 -13t52.5 -35t35.5 -51.5t13 -63.5q0 -33 -13 -61.5t-35.5 -49.5t-52.5 -33.5t-65 -12.5 q-34 0 -63.5 12.5t-52.5 33.5t-35.5 49.5t-12.5 61.5z" />
<glyph unicode="&#x152;" horiz-adv-x="2198" d="M61 746q0 162 50.5 301.5t142 242t220 160.5t286.5 58q136 0 249 -44t201 -124v152h920v-266h-612v-348h469v-256h-469v-356h612v-266h-920v152q-88 -80 -201 -124t-249 -44q-158 0 -286.5 58t-220 161t-142 242.5t-50.5 300.5zM416 746q0 -112 25 -201.5t73.5 -152.5 t119 -97.5t161.5 -34.5q89 0 158.5 34.5t117.5 97.5t73 153t25 201t-25 201t-73 153t-117.5 97.5t-158.5 34.5q-91 0 -161.5 -34.5t-119 -97.5t-73.5 -153t-25 -201z" />
<glyph unicode="&#x153;" horiz-adv-x="1799" d="M52 534q0 126 38.5 226.5t106 171t161 108.5t202.5 38q121 0 216 -46t159 -132q60 82 152.5 130t218.5 48q94 0 175 -35.5t139.5 -102t92 -160t33.5 -209.5q0 -36 -3 -58.5t-11 -35.5t-21 -18t-35 -5h-583q18 -122 79.5 -177.5t155.5 -55.5q52 0 89.5 13.5t66.5 30 t55 29.5t55 13q36 0 56 -27l94 -114q-49 -56 -105 -91.5t-114.5 -55.5t-116 -27.5t-111.5 -7.5q-52 0 -102 10.5t-96.5 33t-88 57t-74.5 81.5q-65 -88 -163 -135t-225 -47q-105 0 -196 38t-157.5 109.5t-104.5 173.5t-38 229zM380 531q0 -158 48 -235t151 -77 q102 0 149 77.5t47 234.5q0 158 -47 235t-149 77q-103 0 -151 -77t-48 -235zM1091 638h372q0 38 -8.5 77.5t-28.5 71t-53.5 52t-81.5 20.5q-90 0 -138.5 -57t-61.5 -164z" />
<glyph unicode="&#x178;" horiz-adv-x="1372" d="M-28 1492h306q45 0 71 -21t43 -54l211 -434q27 -51 48.5 -95.5t37.5 -87.5q15 44 35 88.5t47 94.5l209 434q7 13 17.5 26.5t24 24.5t31.5 17.5t40 6.5h307l-541 -925v-567h-346v567zM294 1708q0 32 13 60.5t34.5 50t49.5 34t59 12.5q34 0 63.5 -12.5t52 -34t35.5 -50 t13 -60.5q0 -33 -13 -60.5t-35.5 -48.5t-52 -33t-63.5 -12q-31 0 -59 12t-49.5 33t-34.5 48.5t-13 60.5zM765 1708q0 32 13 60.5t34.5 50t50.5 34t62 12.5t62 -12.5t50.5 -34t34.5 -50t13 -60.5q0 -33 -13 -60.5t-34.5 -48.5t-50.5 -33t-62 -12t-62 12t-50.5 33t-34.5 48.5 t-13 60.5z" />
<glyph unicode="&#x2c6;" horiz-adv-x="819" d="M20 1196l240 296h299l240 -296h-211q-18 0 -35.5 5.5t-35.5 23.5l-77 85q-6 6 -12.5 13t-12.5 15q-6 -8 -13 -15l-13 -13l-79 -85q-15 -14 -33.5 -21.5t-36.5 -7.5h-220z" />
<glyph unicode="&#x2dc;" horiz-adv-x="819" d="M57 1214q0 65 18.5 116.5t50.5 88.5t75 57t92 20q38 0 71 -11.5t61 -26t51 -26.5t40 -12q25 0 40 13t15 55h193q0 -65 -18 -116.5t-49.5 -88t-74.5 -56t-94 -19.5q-38 0 -70.5 12t-60.5 26.5t-51 26t-41 11.5q-25 0 -39 -14t-14 -56h-195z" />
<glyph unicode="&#x2000;" horiz-adv-x="981" />
<glyph unicode="&#x2001;" horiz-adv-x="1963" />
<glyph unicode="&#x2002;" horiz-adv-x="981" />
<glyph unicode="&#x2003;" horiz-adv-x="1963" />
<glyph unicode="&#x2004;" horiz-adv-x="654" />
<glyph unicode="&#x2005;" horiz-adv-x="490" />
<glyph unicode="&#x2006;" horiz-adv-x="327" />
<glyph unicode="&#x2007;" horiz-adv-x="327" />
<glyph unicode="&#x2008;" horiz-adv-x="245" />
<glyph unicode="&#x2009;" horiz-adv-x="392" />
<glyph unicode="&#x200a;" horiz-adv-x="109" />
<glyph unicode="&#x2010;" horiz-adv-x="765" d="M106 495v256h553v-256h-553z" />
<glyph unicode="&#x2011;" horiz-adv-x="765" d="M106 495v256h553v-256h-553z" />
<glyph unicode="&#x2012;" horiz-adv-x="765" d="M106 495v256h553v-256h-553z" />
<glyph unicode="&#x2013;" d="M174 513v217h840v-217h-840z" />
<glyph unicode="&#x2014;" horiz-adv-x="1642" d="M114 513v217h1415v-217h-1415z" />
<glyph unicode="&#x2018;" horiz-adv-x="464" d="M72 1300q17 91 69 173.5t140 150.5l100 -59q13 -8 18 -18.5t4.5 -21.5t-5 -20.5t-11.5 -16.5q-17 -18 -37 -56.5t-29.5 -90t-0.5 -112.5t50 -125q23 -36 12 -61.5t-42 -36.5l-190 -71q-55 87 -75 180.5t-3 184.5z" />
<glyph unicode="&#x2019;" horiz-adv-x="464" d="M67.5 999.5q0.5 10.5 5 20.5t11.5 17q11 12 24.5 33.5t25 50.5t18 63t4.5 72.5t-14.5 80t-39.5 84.5q-23 36 -12 61.5t41 36.5l191 71q55 -88 74.5 -181t2.5 -184t-69 -174t-139 -150l-101 59q-13 7 -18 18t-4.5 21.5z" />
<glyph unicode="&#x201a;" horiz-adv-x="450" d="M40.5 -248.5q0.5 10.5 5 20.5t11.5 17q11 12 24.5 33.5t25 50.5t18 63t4.5 72.5t-14.5 80t-39.5 84.5q-23 36 -12 61.5t41 36.5l191 71q55 -88 74.5 -181t2.5 -184t-69 -174t-139 -150l-101 59q-13 7 -18 18t-4.5 21.5z" />
<glyph unicode="&#x201c;" horiz-adv-x="831" d="M72 1300q17 91 69 173.5t140 150.5l100 -59q13 -8 18 -18.5t4.5 -21.5t-5 -20.5t-11.5 -16.5q-17 -18 -37 -56.5t-29.5 -90t-0.5 -112.5t50 -125q23 -36 12 -61.5t-42 -36.5l-190 -71q-55 87 -75 180.5t-3 184.5zM439 1300q17 91 69 173.5t140 150.5l100 -59 q13 -8 18 -18.5t4.5 -21.5t-5 -20.5t-11.5 -16.5q-17 -18 -37 -56.5t-29.5 -90t-0.5 -112.5t50 -125q23 -36 12 -61.5t-42 -36.5l-190 -71q-55 87 -75 180.5t-3 184.5z" />
<glyph unicode="&#x201d;" horiz-adv-x="831" d="M67.5 999.5q0.5 10.5 5 20.5t11.5 17q11 12 24.5 33.5t25 50.5t18 63t4.5 72.5t-14.5 80t-39.5 84.5q-23 36 -12 61.5t41 36.5l191 71q55 -88 74.5 -181t2.5 -184t-69 -174t-139 -150l-101 59q-13 7 -18 18t-4.5 21.5zM433.5 999.5q0.5 10.5 5 20.5t11.5 17 q11 12 24.5 33.5t25 50.5t18 63t4.5 72.5t-14.5 80t-39.5 84.5q-23 36 -12 61.5t41 36.5l191 71q55 -88 74.5 -181t2.5 -184t-69 -174t-139 -150l-101 59q-13 7 -18 18t-4.5 21.5z" />
<glyph unicode="&#x201e;" horiz-adv-x="817" d="M40.5 -248.5q0.5 10.5 5 20.5t11.5 17q11 12 24.5 33.5t25 50.5t18 63t4.5 72.5t-14.5 80t-39.5 84.5q-23 36 -12 61.5t41 36.5l191 71q55 -88 74.5 -181t2.5 -184t-69 -174t-139 -150l-101 59q-13 7 -18 18t-4.5 21.5zM407.5 -248.5q0.5 10.5 5 20.5t11.5 17 q11 12 24.5 33.5t25 50.5t18 63t4.5 72.5t-14.5 80t-39.5 84.5q-23 36 -12 61.5t41 36.5l191 71q55 -88 74.5 -181t2.5 -184t-69 -174t-139 -150l-101 59q-13 7 -18 18t-4.5 21.5z" />
<glyph unicode="&#x2022;" d="M87 606q0 102 40 192.5t108.5 158t160.5 106.5t197 39t197.5 -39t161.5 -106.5t109 -157.5t40 -193q0 -101 -40 -191t-109 -157t-161.5 -105.5t-197.5 -38.5q-104 0 -196.5 38.5t-161 105.5t-108.5 157t-40 191z" />
<glyph unicode="&#x2026;" horiz-adv-x="1619" d="M65 161q0 37 13.5 68.5t37.5 55t57 37.5t72 14q38 0 70.5 -14t57 -37.5t38.5 -55t14 -68.5t-14 -69.5t-38.5 -56t-57 -36.5t-70.5 -13q-39 0 -72 13t-57 36.5t-37.5 56t-13.5 69.5zM630 161q0 37 13.5 68.5t37.5 55t57 37.5t72 14q38 0 70.5 -14t57 -37.5t38.5 -55 t14 -68.5t-14 -69.5t-38.5 -56t-57 -36.5t-70.5 -13q-39 0 -72 13t-57 36.5t-37.5 56t-13.5 69.5zM1195 161q0 37 13.5 68.5t37.5 55t57 37.5t72 14q38 0 70.5 -14t57 -37.5t38.5 -55t14 -68.5t-14 -69.5t-38.5 -56t-57 -36.5t-70.5 -13q-39 0 -72 13t-57 36.5t-37.5 56 t-13.5 69.5z" />
<glyph unicode="&#x202f;" horiz-adv-x="392" />
<glyph unicode="&#x2039;" horiz-adv-x="613" d="M83 538v40l268 411l105 -47q40 -17 46.5 -49t-14.5 -68l-122 -220q-18 -31 -37 -47q19 -17 37 -48l122 -221q20 -36 14 -67.5t-46 -48.5l-105 -47z" />
<glyph unicode="&#x203a;" horiz-adv-x="613" d="M111 221.5q-7 31.5 14 67.5l123 221q17 31 37 48q-18 16 -37 47l-123 220q-20 36 -13.5 68t46.5 49l104 47l268 -411v-40l-268 -412l-104 47q-40 17 -47 48.5z" />
<glyph unicode="&#x205f;" horiz-adv-x="490" />
<glyph unicode="&#x20ac;" d="M30 542v169h100v35v29t1 29h-101v169h123q26 121 79 219.5t127.5 168.5t169 107.5t201.5 37.5q145 0 251 -57.5t171 -153.5l-113 -116q-12 -14 -26.5 -25t-38.5 -11q-25 0 -42 15.5t-39.5 34t-56 34t-92.5 15.5q-96 0 -164 -68t-100 -201h471v-94q0 -13 -6 -26.5 t-17.5 -24.5t-27 -17.5t-35.5 -6.5h-406q-1 -14 -1 -28.5v-29.5v-35h395v-95q0 -13 -6 -26t-17.5 -24t-27.5 -17.5t-35 -6.5h-293q27 -148 93.5 -220t162.5 -72q43 0 74 8.5t52.5 21t36 28t27.5 27.5t25.5 21t30.5 9q14 0 24 -4.5t21 -15.5l139 -124q-71 -116 -185.5 -175.5 t-260.5 -59.5q-122 0 -219 40.5t-168 113t-116.5 175t-65.5 227.5h-115z" />
<glyph unicode="&#x2122;" horiz-adv-x="1560" d="M78 1319v173h522v-173h-154v-455h-217v455h-151zM651 864v628h189q13 0 22.5 -1t17.5 -4.5t14.5 -10t14.5 -16.5l97 -222q10 -22 18 -43t16 -44q14 46 35 87l103 222q17 20 30 26t39 6h189v-628h-191v258l15 117l-130 -276q-23 -45 -73 -45h-31q-51 0 -74 45l-123 270 l13 -111v-258h-191z" />
<glyph unicode="&#x25fc;" horiz-adv-x="1059" d="M0 0v1060h1060v-1060h-1060z" />
</font>
</defs>
</svg>
